  0
SECTION
  2
HEADER
  9
$ACADVER
  1
AC1009
  9
$DWGCODEPAGE
  3
ansi_1252
  9
$INSBASE
 10
0.0
 20
0.0
 30
0.0
  9
$EXTMIN
 10
88.85159951431248
 20
-829.1879386182783
 30
0.0
  9
$EXTMAX
 10
264.5486234286735
 20
-607.0937266745268
 30
0.0
  9
$LIMMIN
 10
0.0
 20
0.0
  9
$LIMMAX
 10
12.0
 20
9.0
  9
$ORTHOMODE
 70
     0
  9
$REGENMODE
 70
     1
  9
$FILLMODE
 70
     1
  9
$QTEXTMODE
 70
     0
  9
$MIRRTEXT
 70
     1
  9
$DRAGMODE
 70
     2
  9
$LTSCALE
 40
0.0393700787401575
  9
$OSMODE
 70
    37
  9
$ATTMODE
 70
     1
  9
$TEXTSIZE
 40
0.2
  9
$TRACEWID
 40
0.05
  9
$TEXTSTYLE
  7
STANDARD
  9
$CLAYER
  8
TROUS
  9
$CELTYPE
  6
BYLAYER
  9
$CECOLOR
 62
   256
  9
$DIMSCALE
 40
1.0
  9
$DIMASZ
 40
1.2
  9
$DIMEXO
 40
0.25
  9
$DIMDLI
 40
0.38
  9
$DIMRND
 40
0.0
  9
$DIMDLE
 40
0.0
  9
$DIMEXE
 40
1.0
  9
$DIMTP
 40
0.0
  9
$DIMTM
 40
0.0
  9
$DIMTXT
 40
1.2
  9
$DIMCEN
 40
0.6
  9
$DIMTSZ
 40
0.0
  9
$DIMTOL
 70
     0
  9
$DIMLIM
 70
     0
  9
$DIMTIH
 70
     1
  9
$DIMTOH
 70
     1
  9
$DIMSE1
 70
     0
  9
$DIMSE2
 70
     0
  9
$DIMTAD
 70
     0
  9
$DIMZIN
 70
     1
  9
$DIMBLK
  1

  9
$DIMASO
 70
     1
  9
$DIMSHO
 70
     1
  9
$DIMPOST
  1

  9
$DIMAPOST
  1

  9
$DIMALT
 70
     0
  9
$DIMALTD
 70
     2
  9
$DIMALTF
 40
25.4
  9
$DIMLFAC
 40
1.0
  9
$DIMTOFL
 70
     1
  9
$DIMTVP
 40
0.0
  9
$DIMTIX
 70
     1
  9
$DIMSOXD
 70
     0
  9
$DIMSAH
 70
     0
  9
$DIMBLK1
  1

  9
$DIMBLK2
  1

  9
$DIMSTYLE
  2
IMPERIAL_1_15
  9
$DIMCLRD
 70
     0
  9
$DIMCLRE
 70
     0
  9
$DIMCLRT
 70
     0
  9
$DIMTFAC
 40
1.0
  9
$DIMGAP
 40
0.09
  9
$LUNITS
 70
     2
  9
$LUPREC
 70
     3
  9
$SKETCHINC
 40
0.1
  9
$FILLETRAD
 40
0.5
  9
$AUNITS
 70
     0
  9
$AUPREC
 70
     0
  9
$MENU
  1
.
  9
$ELEVATION
 40
0.0
  9
$PELEVATION
 40
0.0
  9
$THICKNESS
 40
0.0
  9
$LIMCHECK
 70
     0
  9
$CHAMFERA
 40
0.5
  9
$CHAMFERB
 40
0.5
  9
$SKPOLY
 70
     0
  9
$TDCREATE
 40
2456925.574601551
  9
$TDUPDATE
 40
2456925.574601563
  9
$TDINDWG
 40
0.0000000116
  9
$TDUSRTIMER
 40
0.0000000116
  9
$USRTIMER
 70
     1
  9
$ANGBASE
 50
0.0
  9
$ANGDIR
 70
     0
  9
$PDMODE
 70
     0
  9
$PDSIZE
 40
0.0
  9
$PLINEWID
 40
0.0
  9
$COORDS
 70
     1
  9
$SPLFRAME
 70
     0
  9
$SPLINETYPE
 70
     6
  9
$SPLINESEGS
 70
     8
  9
$ATTDIA
 70
     0
  9
$ATTREQ
 70
     1
  9
$HANDLING
 70
     1
  9
$HANDSEED
  5
A4F
  9
$SURFTAB1
 70
     6
  9
$SURFTAB2
 70
     6
  9
$SURFTYPE
 70
     6
  9
$SURFU
 70
     6
  9
$SURFV
 70
     6
  9
$UCSNAME
  2

  9
$UCSORG
 10
0.0
 20
0.0
 30
0.0
  9
$UCSXDIR
 10
1.0
 20
0.0
 30
0.0
  9
$UCSYDIR
 10
0.0
 20
1.0
 30
0.0
  9
$PUCSNAME
  2

  9
$PUCSORG
 10
0.0
 20
0.0
 30
0.0
  9
$PUCSXDIR
 10
1.0
 20
0.0
 30
0.0
  9
$PUCSYDIR
 10
0.0
 20
1.0
 30
0.0
  9
$USERI1
 70
     0
  9
$USERI2
 70
     0
  9
$USERI3
 70
     0
  9
$USERI4
 70
     0
  9
$USERI5
 70
     0
  9
$USERR1
 40
0.0
  9
$USERR2
 40
0.0
  9
$USERR3
 40
0.0
  9
$USERR4
 40
0.0
  9
$USERR5
 40
0.0
  9
$WORLDVIEW
 70
     1
  9
$SHADEDGE
 70
     3
  9
$SHADEDIF
 70
    70
  9
$TILEMODE
 70
     1
  9
$MAXACTVP
 70
    64
  9
$PLIMCHECK
 70
     0
  9
$PEXTMIN
 10
1.000000000000000E+20
 20
1.000000000000000E+20
 30
1.000000000000000E+20
  9
$PEXTMAX
 10
-1.000000000000000E+20
 20
-1.000000000000000E+20
 30
-1.000000000000000E+20
  9
$PLIMMIN
 10
0.0
 20
0.0
  9
$PLIMMAX
 10
12.0
 20
9.0
  9
$UNITMODE
 70
     0
  9
$VISRETAIN
 70
     1
  9
$PLINEGEN
 70
     0
  9
$PSLTSCALE
 70
     1
  0
ENDSEC
  0
SECTION
  2
TABLES
  0
TABLE
  2
VPORT
 70
     1
  0
VPORT
  2
*ACTIVE
 70
     0
 10
0.0
 20
0.0
 11
1.0
 21
1.0
 12
176.1861705838034
 22
-717.9408326464026
 13
0.0
 23
0.0
 14
0.5
 24
0.5
 15
0.5
 25
0.5
 16
0.0
 26
0.0
 36
1.0
 17
0.0
 27
0.0
 37
0.0
 40
226.1868481826264
 41
0.7876785339787331
 42
50.0
 43
0.0
 44
0.0
 50
0.0
 51
0.0
 71
     0
 72
   100
 73
     1
 74
     3
 75
     0
 76
     0
 77
     0
 78
     0
  0
ENDTAB
  0
TABLE
  2
LTYPE
 70
     1
  0
LTYPE
  2
CONTINUOUS
 70
     0
  3
Solid line
 72
    65
 73
     0
 40
0.0
  0
ENDTAB
  0
TABLE
  2
LAYER
 70
     7
  0
LAYER
  2
0
 70
     0
 62
     7
  6
CONTINUOUS
  0
LAYER
  2
TROUS
 70
     0
 62
    30
  6
CONTINUOUS
  0
LAYER
  2
MAKE2D_VISIBLE_LINES
 70
     0
 62
     7
  6
CONTINUOUS
  0
LAYER
  2
DIMENSIONS
 70
     0
 62
   140
  6
CONTINUOUS
  0
LAYER
  2
DEFPOINTS
 70
     0
 62
     7
  6
CONTINUOUS
  0
LAYER
  2
VISIBLE
 70
     0
 62
     7
  6
CONTINUOUS
  0
LAYER
  2
CONTOUR
 70
     0
 62
     7
  6
CONTINUOUS
  0
ENDTAB
  0
TABLE
  2
STYLE
 70
     3
  0
STYLE
  2
STANDARD
 70
     0
 40
0.0
 41
1.0
 50
0.0
 71
     0
 42
0.2
  3
txt
  4

  0
STYLE
  2
SWIS721_CN_BT
 70
     0
 40
0.0
 41
1.0
 50
0.0
 71
     0
 42
0.0
  3

  4

  0
STYLE
  2
EXPLODED0
 70
     0
 40
0.2
 41
1.0
 50
0.0
 71
     0
 42
0.2
  3
Swis721 Cn BT
  4

  0
ENDTAB
  0
TABLE
  2
VIEW
 70
     0
  0
ENDTAB
  0
TABLE
  2
UCS
 70
     0
  0
ENDTAB
  0
TABLE
  2
APPID
 70
     1
  0
APPID
  2
ACAD
 70
     0
  0
ENDTAB
  0
TABLE
  2
DIMSTYLE
 70
     2
  0
DIMSTYLE
  2
STANDARD
 70
     0
  3

  4

  5

  6

  7

 40
1.0
 41
0.18
 42
0.0625
 43
0.38
 44
0.18
 45
0.0
 46
0.0
 47
0.0
 48
0.0
140
0.18
141
0.09
142
0.0
143
25.4
144
1.0
145
0.0
146
1.0
147
0.09
 71
     0
 72
     0
 73
     1
 74
     1
 75
     0
 76
     0
 77
     0
 78
     0
170
     0
171
     2
172
     0
173
     0
174
     0
175
     0
176
     0
177
     0
178
     0
  0
DIMSTYLE
  2
IMPERIAL_1_15
 70
     0
  3

  4

  5

  6

  7

 40
1.0
 41
1.2
 42
0.25
 43
0.38
 44
1.0
 45
0.0
 46
0.0
 47
0.0
 48
0.0
140
1.2
141
0.6
142
0.0
143
25.4
144
1.0
145
0.0
146
1.0
147
0.09
 71
     0
 72
     0
 73
     1
 74
     1
 75
     0
 76
     0
 77
     0
 78
     1
170
     0
171
     2
172
     1
173
     0
174
     1
175
     0
176
     0
177
     0
178
     0
  0
ENDTAB
  0
ENDSEC
  0
SECTION
  2
BLOCKS
  0
BLOCK
  8
0
  2
$MODEL_SPACE
 70
     0
 10
0.0
 20
0.0
 30
0.0
  3
$MODEL_SPACE
  1

  0
ENDBLK
  5
21
  8
0
  0
BLOCK
 67
     1
  8
0
  2
$PAPER_SPACE
 70
     0
 10
0.0
 20
0.0
 30
0.0
  3
$PAPER_SPACE
  1

  0
ENDBLK
  5
1D
 67
     1
  8
0
  0
BLOCK
  8
0
  2
*D1
 70
     1
 10
0.0
 20
0.0
 30
0.0
  3
*D1
  1

  0
LINE
  5
A4
  8
DIMENSIONS
 62
     0
 10
242.6147472900732
 20
-639.8762984483146
 30
0.0
 11
262.3967416532943
 21
-639.8762984483146
 31
0.0
  0
LINE
  5
A5
  8
DIMENSIONS
 62
     0
 10
242.6147472900732
 20
-687.8762984483146
 30
0.0
 11
262.3967416532943
 21
-687.8762984483146
 31
0.0
  0
LINE
  5
A6
  8
DIMENSIONS
 62
     0
 10
261.3967416532943
 20
-641.0762984483147
 30
0.0
 11
261.3967416532943
 21
-663.1700984483145
 31
0.0
  0
LINE
  5
A7
  8
DIMENSIONS
 62
     0
 10
261.3967416532943
 20
-686.6762984483146
 30
0.0
 11
261.3967416532943
 21
-664.5824984483147
 31
0.0
  0
SOLID
  5
A8
  8
DIMENSIONS
 62
     0
 10
261.5967416532943
 20
-641.0762984483147
 30
0.0
 11
261.1967416532943
 21
-641.0762984483147
 31
0.0
 12
261.3967416532943
 22
-639.8762984483146
 32
0.0
 13
261.3967416532943
 23
-639.8762984483146
 33
0.0
  0
SOLID
  5
A9
  8
DIMENSIONS
 62
     0
 10
261.1967416532943
 20
-686.6762984483146
 30
0.0
 11
261.5967416532943
 21
-686.6762984483146
 31
0.0
 12
261.3967416532943
 22
-687.8762984483146
 32
0.0
 13
261.3967416532943
 23
-687.8762984483146
 33
0.0
  0
TEXT
  5
AA
  8
DIMENSIONS
 62
     0
 10
259.2235416532943
 20
-664.4642984483146
 30
0.0
 40
1.2
  1
48.000
  7
SWIS721_CN_BT
  0
POINT
  5
AB
  8
DEFPOINTS
 62
     0
 10
242.3647472900732
 20
-639.8762984483146
 30
0.0
  0
POINT
  5
AC
  8
DEFPOINTS
 62
     0
 10
242.3647472900732
 20
-687.8762984483146
 30
0.0
  0
POINT
  5
AD
  8
DEFPOINTS
 62
     0
 10
261.3967416532943
 20
-687.8762984483146
 30
0.0
  0
ENDBLK
  5
AF
  8
0
  0
BLOCK
  8
0
  2
_OPEN90
 70
     0
 10
0.0
 20
0.0
 30
0.0
  3
_OPEN90
  1

  0
LINE
  5
B4
  8
0
  6
BYBLOCK
 62
     0
 10
-0.5
 20
0.5
 30
0.0
 11
0.0
 21
0.0
 31
0.0
  0
LINE
  5
B5
  8
0
  6
BYBLOCK
 62
     0
 10
0.0
 20
0.0
 30
0.0
 11
-0.5
 21
-0.5
 31
0.0
  0
LINE
  5
B6
  8
0
  6
BYBLOCK
 62
     0
 10
0.0
 20
0.0
 30
0.0
 11
-1.0
 21
0.0
 31
0.0
  0
ENDBLK
  5
B3
  8
0
  0
BLOCK
  8
0
  2
*D3
 70
     1
 10
0.0
 20
0.0
 30
0.0
  3
*D3
  1

  0
LINE
  5
FE
  8
DIMENSIONS
 62
     0
 10
146.3647472900732
 20
-688.1262984483146
 30
0.0
 11
146.3647472900732
 21
-694.61602197607
 31
0.0
  0
LINE
  5
FF
  8
DIMENSIONS
 62
     0
 10
242.3647472900732
 20
-688.1262984483146
 30
0.0
 11
242.3647472900732
 21
-694.61602197607
 31
0.0
  0
LINE
  5
100
  8
DIMENSIONS
 62
     0
 10
147.5647472900732
 20
-693.61602197607
 30
0.0
 11
192.1573472900732
 21
-693.61602197607
 31
0.0
  0
LINE
  5
101
  8
DIMENSIONS
 62
     0
 10
241.1647472900732
 20
-693.61602197607
 30
0.0
 11
196.5721472900732
 21
-693.61602197607
 31
0.0
  0
SOLID
  5
102
  8
DIMENSIONS
 62
     0
 10
147.5647472900732
 20
-693.4160219760699
 30
0.0
 11
147.5647472900732
 21
-693.81602197607
 31
0.0
 12
146.3647472900732
 22
-693.61602197607
 32
0.0
 13
146.3647472900732
 23
-693.61602197607
 33
0.0
  0
SOLID
  5
103
  8
DIMENSIONS
 62
     0
 10
241.1647472900732
 20
-693.81602197607
 30
0.0
 11
241.1647472900732
 21
-693.4160219760699
 31
0.0
 12
242.3647472900732
 22
-693.61602197607
 32
0.0
 13
242.3647472900732
 23
-693.61602197607
 33
0.0
  0
TEXT
  5
104
  8
DIMENSIONS
 62
     0
 10
192.1849472900732
 20
-694.20402197607
 30
0.0
 40
1.2
  1
96.000
  7
SWIS721_CN_BT
  0
POINT
  5
105
  8
DEFPOINTS
 62
     0
 10
146.3647472900732
 20
-687.8762984483146
 30
0.0
  0
POINT
  5
106
  8
DEFPOINTS
 62
     0
 10
242.3647472900732
 20
-687.8762984483146
 30
0.0
  0
POINT
  5
107
  8
DEFPOINTS
 62
     0
 10
242.3647472900732
 20
-693.61602197607
 30
0.0
  0
ENDBLK
  5
109
  8
0
  0
BLOCK
  8
0
  2
*D4
 70
     1
 10
0.0
 20
0.0
 30
0.0
  3
*D4
  1

  0
LINE
  5
1ED
  8
DIMENSIONS
 62
     0
 10
98.01231852088088
 20
-663.2962677252308
 30
0.0
 11
96.81231852088088
 21
-663.2962677252308
 31
0.0
  0
LINE
  5
1EE
  8
DIMENSIONS
 62
     0
 10
96.81231852088088
 20
-663.2962677252308
 30
0.0
 11
96.81231852088088
 21
-665.8201733539677
 31
0.0
  0
LINE
  5
1EF
  8
DIMENSIONS
 62
     0
 10
96.97175743062266
 20
-666.0701733539677
 30
0.0
 11
97.81231852088088
 21
-666.0701733539677
 31
0.0
  0
LINE
  5
1F0
  8
DIMENSIONS
 62
     0
 10
96.61609499792006
 20
-665.8201733539677
 30
0.0
 11
95.81231852088088
 21
-665.8201733539677
 31
0.0
  0
LINE
  5
1F1
  8
DIMENSIONS
 62
     0
 10
96.81231852088088
 20
-666.0701733539677
 30
0.0
 11
96.81231852088088
 21
-665.8201733539677
 31
0.0
  0
LINE
  5
1F2
  8
DIMENSIONS
 62
     0
 10
96.81231852088088
 20
-667.2701733539677
 30
0.0
 11
96.81231852088088
 21
-668.4701733539678
 31
0.0
  0
LINE
  5
1F3
  8
DIMENSIONS
 62
     0
 10
96.81231852088088
 20
-664.6201733539676
 30
0.0
 11
96.81231852088088
 21
-663.4201733539676
 31
0.0
  0
SOLID
  5
1F4
  8
DIMENSIONS
 62
     0
 10
97.01231852088088
 20
-667.2701733539677
 30
0.0
 11
96.61231852088088
 21
-667.2701733539677
 31
0.0
 12
96.81231852088088
 22
-666.0701733539677
 32
0.0
 13
96.81231852088088
 23
-666.0701733539677
 33
0.0
  0
SOLID
  5
1F5
  8
DIMENSIONS
 62
     0
 10
96.61231852088088
 20
-664.6201733539676
 30
0.0
 11
97.01231852088088
 21
-664.6201733539676
 31
0.0
 12
96.81231852088088
 22
-665.8201733539677
 32
0.0
 13
96.81231852088088
 23
-665.8201733539677
 33
0.0
  0
TEXT
  5
1F6
  8
DIMENSIONS
 62
     0
 10
98.02911852088089
 20
-663.8842677252308
 30
0.0
 40
1.2
  1
0.250
  7
SWIS721_CN_BT
  0
POINT
  5
1F7
  8
DEFPOINTS
 62
     0
 10
96.72175743062266
 20
-666.0701733539677
 30
0.0
  0
POINT
  5
1F8
  8
DEFPOINTS
 62
     0
 10
96.86609499792006
 20
-665.8201733539677
 30
0.0
  0
POINT
  5
1F9
  8
DEFPOINTS
 62
     0
 10
99.81711852088088
 20
-665.8201733539677
 30
0.0
  0
ENDBLK
  5
1FB
  8
0
  0
BLOCK
  8
0
  2
*X5
 70
     1
 10
0.0
 20
0.0
 30
0.0
  3
*X5
  1

  0
INSERT
  5
97D
  8
DIMENSIONS
 62
     0
  2
_OPEN90
 10
177.8032844630136
 20
-666.7762984483147
 30
0.0
 41
2.399999999999999
 42
2.399999999999999
 43
2.4
 50
110.3629702240222
  0
LINE
  5
97E
  8
DIMENSIONS
 10
178.6384033842258
 20
-669.0263154232359
 30
0.0
 11
188.9259444495634
 21
-696.7434961016594
 31
0.0
  0
LINE
  5
97F
  8
DIMENSIONS
 10
188.9259444495634
 20
-696.7434961016594
 30
0.0
 11
191.2720644077421
 21
-696.7434961016594
 31
0.0
  0
ENDBLK
  5
981
  8
0
  0
BLOCK
  8
0
  2
*X6
 70
     1
 10
0.0
 20
0.0
 30
0.0
  3
*X6
  1

  0
TEXT
  5
983
  8
DIMENSIONS
 10
191.764064407742
 20
-695.2157852582859
 30
0.0
 40
1.2
  1
USINER À L'INTÉRIEUR
  7
EXPLODED0
  0
TEXT
  5
984
  8
DIMENSIONS
 10
191.7652644077421
 20
-697.1434961016594
 30
0.0
 40
1.2
  1
DES LIGNES BLEUES
  7
EXPLODED0
  0
TEXT
  5
985
  8
DIMENSIONS
 10
191.7652644077421
 20
-699.0712069450328
 30
0.0
 40
1.2
  1
PROF: 0.375''
  7
EXPLODED0
  0
ENDBLK
  5
987
  8
0
  0
BLOCK
  8
0
  2
*X7
 70
     1
 10
0.0
 20
0.0
 30
0.0
  3
*X7
  1

  0
INSERT
  5
989
  8
DIMENSIONS
 62
     0
  2
_OPEN90
 10
195.931715547064
 20
-641.7412894354813
 30
0.0
 41
2.4
 42
2.4
 43
2.4
 50
-129.0236439190868
  0
LINE
  5
98A
  8
DIMENSIONS
 62
     1
 10
197.442854037787
 20
-639.8767625620211
 30
0.0
 11
205.9283928164555
 21
-629.4068319860044
 31
0.0
  0
ENDBLK
  5
98C
  8
0
  0
BLOCK
  8
0
  2
*X8
 70
     1
 10
0.0
 20
0.0
 30
0.0
  3
*X8
  1

  0
INSERT
  5
98E
  8
DIMENSIONS
 62
     0
  2
_OPEN90
 10
162.1965239853696
 20
-686.7865665324514
 30
0.0
 41
2.4
 42
2.4
 43
2.4
 50
115.1746819986715
  0
LINE
  5
98F
  8
DIMENSIONS
 10
163.2174346000522
 20
-688.9586027929288
 30
0.0
 11
166.8553385335868
 21
-696.6984177602039
 31
0.0
  0
ENDBLK
  5
991
  8
0
  0
BLOCK
  8
0
  2
*X9
 70
     1
 10
0.0
 20
0.0
 30
0.0
  3
*X9
  1

  0
INSERT
  5
993
  8
DIMENSIONS
 62
     0
  2
_OPEN90
 10
222.3939218601606
 20
-647.2512984483144
 30
0.0
 41
2.4
 42
2.4
 43
2.4
 50
-97.2103125138448
  0
LINE
  5
994
  8
DIMENSIONS
 10
222.6951501792011
 20
-644.8702773438704
 30
0.0
 11
225.2457549746873
 21
-624.7093447114601
 31
0.0
  0
ENDBLK
  5
996
  8
0
  0
BLOCK
  8
0
  2
*X10
 70
     1
 10
0.0
 20
0.0
 30
0.0
  3
*X10
  1

  0
INSERT
  5
998
  8
DIMENSIONS
 62
     0
  2
_OPEN90
 10
218.2059183166896
 20
-640.9662984483148
 30
0.0
 41
2.4
 42
2.4
 43
2.4
 50
-113.4143201751702
  0
LINE
  5
999
  8
DIMENSIONS
 10
219.1596237322941
 20
-638.7639256414888
 30
0.0
 11
225.2457549746872
 21
-624.7093447114602
 31
0.0
  0
LINE
  5
99A
  8
DIMENSIONS
 10
225.2457549746872
 20
-624.7093447114602
 30
0.0
 11
227.5918749328659
 21
-624.7093447114602
 31
0.0
  0
ENDBLK
  5
99C
  8
0
  0
BLOCK
  8
0
  2
*X11
 70
     1
 10
0.0
 20
0.0
 30
0.0
  3
*X11
  1

  0
TEXT
  5
99E
  8
DIMENSIONS
 10
228.0838749328659
 20
-624.1454892897734
 30
0.0
 40
1.2
  1
USINER À L'INTÉRIEUR DES LIGNES BLEUES
  7
EXPLODED0
  0
TEXT
  5
99F
  8
DIMENSIONS
 10
228.0850749328659
 20
-626.0732001331469
 30
0.0
 40
1.2
  1
PROF: 0.355''
  7
EXPLODED0
  0
ENDBLK
  5
9A1
  8
0
  0
BLOCK
  8
0
  2
*X12
 70
     1
 10
0.0
 20
0.0
 30
0.0
  3
*X12
  1

  0
INSERT
  5
9A3
  8
DIMENSIONS
 62
     0
  2
_OPEN90
 10
231.5372767831838
 20
-679.4262984483148
 30
0.0
 41
2.4
 42
2.4
 43
2.4
 50
115.0000029604466
  0
LINE
  5
9A4
  8
DIMENSIONS
 10
232.5515607237499
 20
-681.6014370847952
 30
0.0
 11
239.5913993773823
 21
-696.6984177602039
 31
0.0
  0
ENDBLK
  5
9A6
  8
0
  0
BLOCK
  8
0
  2
*X13
 70
     1
 10
0.0
 20
0.0
 30
0.0
  3
*X13
  1

  0
INSERT
  5
9A8
  8
DIMENSIONS
 62
     0
  2
_OPEN90
 10
148.6413589424249
 20
-686.823178184803
 30
0.0
 41
2.4
 42
2.4
 43
2.4
 50
151.5343749808008
  0
LINE
  5
9A9
  8
DIMENSIONS
 10
150.7512066920868
 20
-687.9670935983046
 30
0.0
 11
166.8553385335868
 21
-696.6984177602039
 31
0.0
  0
LINE
  5
9AA
  8
DIMENSIONS
 10
166.8553385335868
 20
-696.6984177602039
 30
0.0
 11
169.2014584917655
 21
-696.6984177602039
 31
0.0
  0
ENDBLK
  5
9AC
  8
0
  0
BLOCK
  8
0
  2
*X14
 70
     1
 10
0.0
 20
0.0
 30
0.0
  3
*X14
  1

  0
TEXT
  5
9AE
  8
DIMENSIONS
 10
169.6934584917655
 20
-695.1707069168305
 30
0.0
 40
1.2
  1
USINER À L'INTÉRIEUR
  7
EXPLODED0
  0
TEXT
  5
9AF
  8
DIMENSIONS
 10
169.6946584917655
 20
-697.0984177602039
 30
0.0
 40
1.2
  1
DES LIGNES BLEUES
  7
EXPLODED0
  0
TEXT
  5
9B0
  8
DIMENSIONS
 10
169.6946584917655
 20
-699.0261286035774
 30
0.0
 40
1.2
  1
PROF: 0.365''
  7
EXPLODED0
  0
ENDBLK
  5
9B2
  8
0
  0
BLOCK
  8
0
  2
*X15
 70
     1
 10
0.0
 20
0.0
 30
0.0
  3
*X15
  1

  0
TEXT
  5
9B4
  8
VISIBLE
 10
88.90427345255083
 20
-670.8235052394289
 30
0.0
 40
1.0
  1
VUE DE DESSUS
  7
EXPLODED0
  0
TEXT
  5
9B5
  8
VISIBLE
 10
88.81927345255083
 20
-672.4299309422402
 30
0.0
 40
1.0
  1
DÉTAIL DE LA RAINURE DU
  7
EXPLODED0
  0
TEXT
  5
9B6
  8
VISIBLE
 10
88.81927345255083
 20
-674.0363566450515
 30
0.0
 40
1.0
  1
BALL MILL
  7
EXPLODED0
  0
ENDBLK
  5
9B8
  8
0
  0
BLOCK
  8
0
  2
*X16
 70
     1
 10
0.0
 20
0.0
 30
0.0
  3
*X16
  1

  0
INSERT
  5
9BA
  8
DIMENSIONS
 62
     0
  2
_OPEN90
 10
157.5522472900732
 20
-660.2987984483148
 30
0.0
 41
2.4
 42
2.4
 43
2.4
 50
-43.1268569015
  0
LINE
  5
9BB
  8
DIMENSIONS
 10
155.8006266874952
 20
-658.6581201542472
 30
0.0
 11
143.3957382215237
 21
-647.0389195028649
 31
0.0
  0
LINE
  5
9BC
  8
DIMENSIONS
 10
143.3957382215237
 20
-647.0389195028649
 30
0.0
 11
140.6753187318843
 21
-647.0389195028649
 31
0.0
  0
ENDBLK
  5
9BE
  8
0
  0
BLOCK
  8
0
  2
*X17
 70
     1
 10
0.0
 20
0.0
 30
0.0
  3
*X17
  1

  0
TEXT
  5
9C0
  8
DIMENSIONS
 10
125.9417187318843
 20
-642.6196423944313
 30
0.0
 40
1.2
  1
USINER À L'INTÉRIEUR
  7
EXPLODED0
  0
TEXT
  5
9C1
  8
DIMENSIONS
 10
126.7253187318843
 20
-644.5473532378047
 30
0.0
 40
1.2
  1
DES LIGNES MAUVES
  7
EXPLODED0
  0
TEXT
  5
9C2
  8
DIMENSIONS
 10
129.6149187318843
 20
-646.4750640811782
 30
0.0
 40
1.2
  1
AVEC BALL MILL
  7
EXPLODED0
  0
TEXT
  5
9C3
  8
DIMENSIONS
 10
133.9325187318843
 20
-648.4027749245516
 30
0.0
 40
1.2
  1
DIA. 0,25"
  7
EXPLODED0
  0
TEXT
  5
9C4
  8
DIMENSIONS
 10
124.4033187318843
 20
-650.3304857679251
 30
0.0
 40
1.2
  1
PROF. TOTALE (AU BOUT
  7
EXPLODED0
  0
TEXT
  5
9C5
  8
DIMENSIONS
 10
126.9497187318843
 20
-652.2581966112986
 30
0.0
 40
1.2
  1
DE LA FRAISE): 0.25"
  7
EXPLODED0
  0
ENDBLK
  5
9C7
  8
0
  0
BLOCK
  8
0
  2
*X18
 70
     1
 10
0.0
 20
0.0
 30
0.0
  3
*X18
  1

  0
INSERT
  5
9C9
  8
DIMENSIONS
 62
     0
  2
_OPEN90
 10
181.9923240889929
 20
-804.9494014410396
 30
0.0
 41
2.4
 42
2.4
 43
2.4
 50
151.6432377423594
  0
LINE
  5
9CA
  8
DIMENSIONS
 10
184.1043414838866
 20
-806.0893060526921
 30
0.0
 11
220.0617901963258
 21
-825.496372353218
 31
0.0
  0
LINE
  5
9CB
  8
DIMENSIONS
 10
220.0617901963258
 20
-825.496372353218
 30
0.0
 11
222.4079101545045
 21
-825.496372353218
 31
0.0
  0
ENDBLK
  5
9CD
  8
0
  0
BLOCK
  8
0
  2
*X19
 70
     1
 10
0.0
 20
0.0
 30
0.0
  3
*X19
  1

  0
TEXT
  5
9CF
  8
DIMENSIONS
 10
222.8999101545045
 20
-823.0048060881578
 30
0.0
 40
1.2
  1
USINER AVEC FRAISE 3/16''
  7
EXPLODED0
  0
TEXT
  5
9D0
  8
DIMENSIONS
 10
222.9011101545045
 20
-824.9325169315313
 30
0.0
 40
1.2
  1
PROF: 0.125''
  7
EXPLODED0
  0
TEXT
  5
9D1
  8
DIMENSIONS
 10
222.9251101545045
 20
-826.8602277749047
 30
0.0
 40
1.2
  1
CES LIGNES REPRÉSENTENT LE
  7
EXPLODED0
  0
TEXT
  5
9D2
  8
DIMENSIONS
 10
222.9851101545045
 20
-828.7879386182782
 30
0.0
 40
1.2
  1
TOOL PATH
  7
EXPLODED0
  0
ENDBLK
  5
9D4
  8
0
  0
BLOCK
  8
0
  2
*X20
 70
     1
 10
0.0
 20
0.0
 30
0.0
  3
*X20
  1

  0
INSERT
  5
9D6
  8
DIMENSIONS
 62
     0
  2
_OPEN90
 10
222.3705293674217
 20
-811.7654976532872
 30
0.0
 41
2.4
 42
2.4
 43
2.4
 50
80.45544186110699
  0
LINE
  5
9D7
  8
DIMENSIONS
 10
221.9725743835656
 20
-814.1322743286041
 30
0.0
 11
220.0617901963257
 21
-825.496372353218
 31
0.0
  0
ENDBLK
  5
9D9
  8
0
  0
BLOCK
  8
0
  2
*X21
 70
     1
 10
0.0
 20
0.0
 30
0.0
  3
*X21
  1

  0
INSERT
  5
9DB
  8
DIMENSIONS
 62
     0
  2
_OPEN90
 10
149.5454953528055
 20
-642.4387984483146
 30
0.0
 41
2.4
 42
2.4
 43
2.4
 50
-72.79077733478067
  0
LINE
  5
9DC
  8
DIMENSIONS
 10
148.8354270005763
 20
-640.1462446462933
 30
0.0
 11
144.0541851860592
 21
-624.7093447114601
 31
0.0
  0
LINE
  5
9DD
  8
DIMENSIONS
 10
144.0541851860592
 20
-624.7093447114601
 30
0.0
 11
141.5953895890086
 21
-624.7093447114601
 31
0.0
  0
ENDBLK
  5
9DF
  8
0
  0
BLOCK
  8
0
  2
*X22
 70
     1
 10
0.0
 20
0.0
 30
0.0
  3
*X22
  1

  0
TEXT
  5
9E1
  8
DIMENSIONS
 10
126.8617895890086
 20
-623.1816338680866
 30
0.0
 40
1.2
  1
USINER À L'INTÉRIEUR
  7
EXPLODED0
  0
TEXT
  5
9E2
  8
DIMENSIONS
 10
128.1325895890086
 20
-625.10934471146
 30
0.0
 40
1.2
  1
DES LIGNES BLEUES
  7
EXPLODED0
  0
TEXT
  5
9E3
  8
DIMENSIONS
 10
132.7969895890086
 20
-627.0370555548335
 30
0.0
 40
1.2
  1
PROF: 0.130''
  7
EXPLODED0
  0
ENDBLK
  5
9E5
  8
0
  0
BLOCK
  8
0
  2
*X23
 70
     1
 10
0.0
 20
0.0
 30
0.0
  3
*X23
  1

  0
INSERT
  5
9E7
  8
DIMENSIONS
 62
     0
  2
_OPEN90
 10
101.6590793084722
 20
-662.252464961959
 30
0.0
 41
2.4
 42
2.4
 43
2.4
 50
-139.8379198854537
  0
LINE
  5
9E8
  8
DIMENSIONS
 10
103.4932146106085
 20
-660.70458005233
 30
0.0
 11
119.6860660848126
 21
-647.0389195028649
 31
0.0
  0
LINE
  5
9E9
  8
DIMENSIONS
 10
119.6860660848126
 20
-647.0389195028649
 30
0.0
 11
122.406485574452
 21
-647.0389195028649
 31
0.0
  0
ENDBLK
  5
9EB
  8
0
  0
BLOCK
  8
0
  2
*X24
 70
     1
 10
0.0
 20
0.0
 30
0.0
  3
*X24
  1

  0
INSERT
  5
9ED
  8
DIMENSIONS
 62
     0
  2
_OPEN90
 10
185.0282654159342
 20
-654.0362545571345
 30
0.0
 41
2.399999999999999
 42
2.399999999999999
 43
2.4
 50
-95.55414343449755
  0
LINE
  5
9EE
  8
DIMENSIONS
 10
185.260552632606
 20
-651.647522121517
 30
0.0
 11
187.8800985304609
 21
-624.7093447114601
 31
0.0
  0
ENDBLK
  5
9F0
  8
0
  0
BLOCK
  8
0
  2
*X25
 70
     1
 10
0.0
 20
0.0
 30
0.0
  3
*X25
  1

  0
INSERT
  5
9F2
  8
DIMENSIONS
 62
     0
  2
_OPEN90
 10
179.0222383624244
 20
-647.7512545571346
 30
0.0
 41
2.4
 42
2.4
 43
2.4
 50
-111.0279515047333
  0
LINE
  5
9F3
  8
DIMENSIONS
 10
179.8834144028129
 20
-645.5110813880558
 30
0.0
 11
187.8800985304609
 21
-624.7093447114601
 31
0.0
  0
LINE
  5
9F4
  8
DIMENSIONS
 10
187.8800985304609
 20
-624.7093447114601
 30
0.0
 11
190.2262184886397
 21
-624.7093447114601
 31
0.0
  0
ENDBLK
  5
9F6
  8
0
  0
BLOCK
  8
0
  2
*X26
 70
     1
 10
0.0
 20
0.0
 30
0.0
  3
*X26
  1

  0
TEXT
  5
9F8
  8
DIMENSIONS
 10
190.7182184886396
 20
-624.1454892897733
 30
0.0
 40
1.2
  1
USINER À L'INTÉRIEUR DES LIGNES BLEUES
  7
EXPLODED0
  0
TEXT
  5
9F9
  8
DIMENSIONS
 10
190.7194184886397
 20
-626.0732001331468
 30
0.0
 40
1.2
  1
PROF: 0.355''
  7
EXPLODED0
  0
ENDBLK
  5
9FB
  8
0
  0
BLOCK
  8
0
  2
*X27
 70
     1
 10
0.0
 20
0.0
 30
0.0
  3
*X27
  1

  0
INSERT
  5
9FD
  8
DIMENSIONS
 62
     0
  2
_OPEN90
 10
208.2492854877986
 20
-648.7361313862555
 30
0.0
 41
2.4
 42
2.4
 43
2.4
 50
-83.15320361921634
  0
LINE
  5
9FE
  8
DIMENSIONS
 62
     1
 10
207.9631696456737
 20
-646.3532470573622
 30
0.0
 11
205.9283928164555
 21
-629.4068319860044
 31
0.0
  0
LINE
  5
9FF
  8
DIMENSIONS
 62
     1
 10
205.9283928164555
 20
-629.4068319860044
 30
0.0
 11
208.2745127746342
 21
-629.4068319860044
 31
0.0
  0
ENDBLK
  5
A01
  8
0
  0
BLOCK
  8
0
  2
*X28
 70
     1
 10
0.0
 20
0.0
 30
0.0
  3
*X28
  1

  0
TEXT
  5
A03
  8
DIMENSIONS
 62
     1
 10
208.7677127746342
 20
-625.9514102992574
 30
0.0
 40
1.2
  1
PERCER TOUS LES
  7
EXPLODED0
  0
TEXT
  5
A04
  8
DIMENSIONS
 62
     1
 10
208.8517127746342
 20
-627.8791211426309
 30
0.0
 40
1.2
  1
TROUS SUR CE
  7
EXPLODED0
  0
TEXT
  5
A05
  8
DIMENSIONS
 62
     1
 10
208.7917127746342
 20
-629.8068319860043
 30
0.0
 40
1.2
  1
CÔTÉ
  7
EXPLODED0
  0
TEXT
  5
A06
  8
DIMENSIONS
 62
     1
 10
208.7677127746342
 20
-631.7345428293778
 30
0.0
 40
1.2
  1
DIA. 3/32''
  7
EXPLODED0
  0
TEXT
  5
A07
  8
DIMENSIONS
 62
     1
 10
208.7677127746342
 20
-633.6622536727513
 30
0.0
 40
1.2
  1
PROF: 0.5625"
  7
EXPLODED0
  0
ENDBLK
  5
A09
  8
0
  0
BLOCK
  8
0
  2
*X29
 70
     1
 10
0.0
 20
0.0
 30
0.0
  3
*X29
  1

  0
INSERT
  5
A0B
  8
DIMENSIONS
 62
     0
  2
_OPEN90
 10
164.364747290073
 20
-685.9912984483146
 30
0.0
 41
2.4
 42
2.4
 43
2.4
 50
103.0947536917236
  0
LINE
  5
A0C
  8
DIMENSIONS
 10
164.9084963877535
 20
-688.3288905681618
 30
0.0
 11
166.8553385335867
 21
-696.6984177602039
 31
0.0
  0
ENDBLK
  5
A0E
  8
0
  0
BLOCK
  8
0
  2
*X30
 70
     1
 10
0.0
 20
0.0
 30
0.0
  3
*X30
  1

  0
INSERT
  5
A10
  8
DIMENSIONS
 62
     0
  2
_OPEN90
 10
210.1247199774086
 20
-675.5704783759913
 30
0.0
 41
2.4
 42
2.4
 43
2.4
 50
144.3590526825426
  0
LINE
  5
A11
  8
DIMENSIONS
 10
212.0751628499584
 20
-676.9689677756364
 30
0.0
 11
239.5913993773823
 21
-696.698417760204
 31
0.0
  0
LINE
  5
A12
  8
DIMENSIONS
 10
239.5913993773823
 20
-696.698417760204
 30
0.0
 11
241.937519335561
 21
-696.698417760204
 31
0.0
  0
ENDBLK
  5
A14
  8
0
  0
BLOCK
  8
0
  2
*X31
 70
     1
 10
0.0
 20
0.0
 30
0.0
  3
*X31
  1

  0
TEXT
  5
A16
  8
DIMENSIONS
 10
242.429519335561
 20
-695.1707069168306
 30
0.0
 40
1.2
  1
USINER À L'INTÉRIEUR
  7
EXPLODED0
  0
TEXT
  5
A17
  8
DIMENSIONS
 10
242.430719335561
 20
-697.098417760204
 30
0.0
 40
1.2
  1
DES LIGNES BLEUES
  7
EXPLODED0
  0
TEXT
  5
A18
  8
DIMENSIONS
 10
242.430719335561
 20
-699.0261286035775
 30
0.0
 40
1.2
  1
PROF: 0.355''
  7
EXPLODED0
  0
ENDBLK
  5
A1A
  8
0
  0
BLOCK
  8
0
  2
*X32
 70
     1
 10
0.0
 20
0.0
 30
0.0
  3
*X32
  1

  0
INSERT
  5
A1C
  8
DIMENSIONS
 62
     0
  2
_OPEN90
 10
231.3573288873514
 20
-778.3336386211927
 30
0.0
 41
2.399999999999999
 42
2.399999999999999
 43
2.4
 50
-140.6319777974078
  0
LINE
  5
A1D
  8
DIMENSIONS
 10
233.2127393854912
 20
-776.8113206900782
 30
0.0
 11
243.7378438977746
 21
-768.1757355503117
 31
0.0
  0
LINE
  5
A1E
  8
DIMENSIONS
 10
243.7378438977746
 20
-768.1757355503117
 30
0.0
 11
247.3331952864839
 21
-768.1757355503117
 31
0.0
  0
ENDBLK
  5
A20
  8
0
  0
BLOCK
  8
0
  2
*X33
 70
     1
 10
0.0
 20
0.0
 30
0.0
  3
*X33
  1

  0
TEXT
  5
A22
  8
DIMENSIONS
 10
247.8251952864839
 20
-767.611880128625
 30
0.0
 40
1.2
  1
Usiner 3 pockets
  7
EXPLODED0
  0
TEXT
  5
A23
  8
DIMENSIONS
 10
247.8263952864839
 20
-769.5395909719985
 30
0.0
 40
1.2
  1
PROF:  0.09375"
  7
EXPLODED0
  0
ENDBLK
  5
A25
  8
0
  0
BLOCK
  8
0
  2
*X34
 70
     1
 10
0.0
 20
0.0
 30
0.0
  3
*X34
  1

  0
INSERT
  5
A27
  8
DIMENSIONS
 62
     0
  2
_OPEN90
 10
231.6367396920547
 20
-784.0055136211927
 30
0.0
 41
2.4
 42
2.4
 43
2.4
 50
-152.8097706197255
  0
LINE
  5
A28
  8
DIMENSIONS
 62
     1
 10
233.7715260337325
 20
-782.9088426243179
 30
0.0
 11
245.1210219890134
 21
-777.0784403960922
 31
0.0
  0
LINE
  5
A29
  8
DIMENSIONS
 62
     1
 10
245.1210219890134
 20
-777.0784403960922
 30
0.0
 11
247.4671419471921
 21
-777.0784403960922
 31
0.0
  0
ENDBLK
  5
A2B
  8
0
  0
BLOCK
  8
0
  2
*X35
 70
     1
 10
0.0
 20
0.0
 30
0.0
  3
*X35
  1

  0
TEXT
  5
A2D
  8
DIMENSIONS
 62
     1
 10
247.9603419471921
 20
-770.7314524442851
 30
0.0
 40
1.2
  1
PERCER 6 TROUS
  7
EXPLODED0
  0
TEXT
  5
A2E
  8
DIMENSIONS
 62
     1
 10
247.9603419471921
 20
-772.6591632876585
 30
0.0
 40
1.2
  1
DIA. 3/32''
  7
EXPLODED0
  0
TEXT
  5
A2F
  8
DIMENSIONS
 62
     1
 10
247.9603419471921
 20
-774.586874131032
 30
0.0
 40
1.2
  1
PROF: 0.65625"
  7
EXPLODED0
  0
TEXT
  5
A30
  8
DIMENSIONS
 62
     1
 10
247.9879419471921
 20
-776.5145849744055
 30
0.0
 40
1.2
  1
SURF. DE RÉF POUR
  7
EXPLODED0
  0
TEXT
  5
A31
  8
DIMENSIONS
 62
     1
 10
247.9603419471921
 20
-778.4422958177789
 30
0.0
 40
1.2
  1
PROFONDEUR: SURFACE
  7
EXPLODED0
  0
TEXT
  5
A32
  8
DIMENSIONS
 62
     1
 10
247.9603419471921
 20
-780.3700066611524
 30
0.0
 40
1.2
  1
DU PANNEAU
  7
EXPLODED0
  0
ENDBLK
  5
A34
  8
0
  0
BLOCK
  8
0
  2
*X36
 70
     1
 10
0.0
 20
0.0
 30
0.0
  3
*X36
  1

  0
INSERT
  5
A36
  8
DIMENSIONS
 62
     0
  2
_OPEN90
 10
168.1424057828455
 20
-646.4075484483146
 30
0.0
 41
2.4
 42
2.4
 43
2.4
 50
-69.90848983246555
  0
LINE
  5
A37
  8
DIMENSIONS
 62
     1
 10
167.3179564867846
 20
-644.153600055333
 30
0.0
 11
155.8176144447004
 21
-612.7130037829605
 31
0.0
  0
LINE
  5
A38
  8
DIMENSIONS
 62
     1
 10
155.8176144447004
 20
-612.7130037829605
 30
0.0
 11
153.029600941546
 21
-612.7130037829605
 31
0.0
  0
ENDBLK
  5
A3A
  8
0
  0
BLOCK
  8
0
  2
*X37
 70
     1
 10
0.0
 20
0.0
 30
0.0
  3
*X37
  1

  0
TEXT
  5
A3C
  8
DIMENSIONS
 62
     1
 10
141.328400941546
 20
-608.2937266745269
 30
0.0
 40
1.2
  1
PERCER 6 TROUS
  7
EXPLODED0
  0
TEXT
  5
A3D
  8
DIMENSIONS
 62
     1
 10
146.225600941546
 20
-610.2214375179003
 30
0.0
 40
1.2
  1
DIA. 3/32''
  7
EXPLODED0
  0
TEXT
  5
A3E
  8
DIMENSIONS
 62
     1
 10
142.659200941546
 20
-612.1491483612738
 30
0.0
 40
1.2
  1
PROF: 0.65625"
  7
EXPLODED0
  0
TEXT
  5
A3F
  8
DIMENSIONS
 62
     1
 10
139.758800941546
 20
-614.0768592046472
 30
0.0
 40
1.2
  1
SURF. DE RÉF POUR
  7
EXPLODED0
  0
TEXT
  5
A40
  8
DIMENSIONS
 62
     1
 10
136.926800941546
 20
-616.0045700480207
 30
0.0
 40
1.2
  1
PROFONDEUR: SURFACE
  7
EXPLODED0
  0
TEXT
  5
A41
  8
DIMENSIONS
 62
     1
 10
144.141200941546
 20
-617.9322808913942
 30
0.0
 40
1.2
  1
DU PANNEAU
  7
EXPLODED0
  0
ENDBLK
  5
A43
  8
0
  0
BLOCK
  8
0
  2
*X38
 70
     1
 10
0.0
 20
0.0
 30
0.0
  3
*X38
  1

  0
INSERT
  5
A45
  8
DIMENSIONS
 62
     0
  2
_OPEN90
 10
168.6147472900732
 20
-644.6262984483146
 30
0.0
 41
2.399999999999999
 42
2.399999999999999
 43
2.4
 50
-112.1726124523061
  0
LINE
  5
A46
  8
DIMENSIONS
 10
169.5205029097426
 20
-642.4037758370827
 30
0.0
 11
180.6657166314962
 21
-615.0559030050592
 31
0.0
  0
LINE
  5
A47
  8
DIMENSIONS
 10
180.6657166314962
 20
-615.0559030050592
 30
0.0
 11
184.2610680202055
 21
-615.0559030050592
 31
0.0
  0
ENDBLK
  5
A49
  8
0
  0
BLOCK
  8
0
  2
*X39
 70
     1
 10
0.0
 20
0.0
 30
0.0
  3
*X39
  1

  0
TEXT
  5
A4B
  8
DIMENSIONS
 10
184.7530680202055
 20
-614.4920475833725
 30
0.0
 40
1.2
  1
Usiner 3 pockets
  7
EXPLODED0
  0
TEXT
  5
A4C
  8
DIMENSIONS
 10
184.7542680202055
 20
-616.419758426746
 30
0.0
 40
1.2
  1
PROF:  0.09375"
  7
EXPLODED0
  0
ENDBLK
  5
A4E
  8
0
  0
ENDSEC
  0
SECTION
  2
ENTITIES
  0
CIRCLE
  5
3C
  8
TROUS
 10
231.5254896920547
 20
-791.9998886211927
 30
0.0
 40
0.0468749999999726
  0
CIRCLE
  5
3D
  8
TROUS
 10
231.5254896920547
 20
-790.5623886211927
 30
0.0
 40
0.0468750000004333
  0
CIRCLE
  5
3E
  8
TROUS
 10
231.5254896920547
 20
-785.4998886211927
 30
0.0
 40
0.0468750000003906
  0
CIRCLE
  5
3F
  8
TROUS
 10
231.5254896920547
 20
-784.0623886211927
 30
0.0
 40
0.0468750000004048
  0
CIRCLE
  5
40
  8
TROUS
 10
231.5254896920547
 20
-778.9998886211927
 30
0.0
 40
0.0468750000002638
  0
CIRCLE
  5
41
  8
TROUS
 10
231.5254896920547
 20
-777.5623886211927
 30
0.0
 40
0.0468750000002922
  0
CIRCLE
  5
42
  8
TROUS
 10
168.1769972900732
 20
-659.4075484483147
 30
0.0
 40
0.0468750000000481
  0
CIRCLE
  5
43
  8
TROUS
 10
168.1769972900732
 20
-657.9700484483147
 30
0.0
 40
0.0468750000003241
  0
CIRCLE
  5
44
  8
TROUS
 10
168.1769972900732
 20
-652.9075484483147
 30
0.0
 40
0.0468750000003167
  0
CIRCLE
  5
45
  8
TROUS
 10
168.1769972900732
 20
-651.4700484483147
 30
0.0
 40
0.0468749999999074
  0
CIRCLE
  5
46
  8
TROUS
 10
168.1769972900733
 20
-646.4075484483146
 30
0.0
 40
0.0468749999999039
  0
CIRCLE
  5
47
  8
TROUS
 10
168.1769972900733
 20
-644.9700484483146
 30
0.0
 40
0.0468750000000242
  0
CIRCLE
  5
48
  8
TROUS
 10
169.3950913153196
 20
-660.4275846184786
 30
0.0
 40
0.0468749999999854
  0
CIRCLE
  5
49
  8
TROUS
 10
169.3950913153198
 20
-659.4900846184788
 30
0.0
 40
0.0468750000001603
  0
CIRCLE
  5
4A
  8
TROUS
 10
169.3950913153196
 20
-649.585084618479
 30
0.0
 40
0.0468750000000148
  0
CIRCLE
  5
4B
  8
TROUS
 10
169.3950913153198
 20
-648.647584618479
 30
0.0
 40
0.0468749999999726
  0
CIRCLE
  5
4C
  8
TROUS
 10
189.0300913153196
 20
-648.6475846184788
 30
0.0
 40
0.0468749999997705
  0
CIRCLE
  5
4D
  8
TROUS
 10
189.0300913153198
 20
-649.5850846184791
 30
0.0
 40
0.0468749999998301
  0
CIRCLE
  5
4E
  8
TROUS
 10
206.6341126899222
 20
-666.4136588656227
 30
0.0
 40
0.0468749999999275
  0
CIRCLE
  5
4F
  8
TROUS
 10
206.0144596515636
 20
-666.3320799954853
 30
0.0
 40
0.04687500000001
  0
CIRCLE
  5
50
  8
TROUS
 10
208.9551294399793
 20
-648.7837863406737
 30
0.0
 40
0.0468749999999958
  0
CIRCLE
  5
51
  8
TROUS
 10
208.3354764016206
 20
-648.7022074705362
 30
0.0
 40
0.0468749999999608
  0
CIRCLE
  5
52
  8
TROUS
 10
195.4881471941486
 20
-641.8775001705095
 30
0.0
 40
0.046875000000028
  0
CIRCLE
  5
53
  8
TROUS
 10
196.1078002325072
 20
-641.7959213003719
 30
0.0
 40
0.0468750000001888
  0
CIRCLE
  5
54
  8
TROUS
 10
197.809163944206
 20
-659.5073726954588
 30
0.0
 40
0.0468750000006756
  0
CIRCLE
  5
55
  8
TROUS
 10
198.4288169825645
 20
-659.425793825321
 30
0.0
 40
0.0468749999998554
  0
CIRCLE
  5
56
  8
TROUS
 10
215.413185318808
 20
-642.6787984483145
 30
0.0
 40
0.046874999999742
  0
CIRCLE
  5
57
  8
TROUS
 10
215.4131853188082
 20
-641.7412984483148
 30
0.0
 40
0.0468749999998689
  0
CIRCLE
  5
58
  8
TROUS
 10
235.0481853188082
 20
-641.7412984483148
 30
0.0
 40
0.0468750000001687
  0
CIRCLE
  5
59
  8
TROUS
 10
235.0481853188083
 20
-642.6787984483146
 30
0.0
 40
0.0468750000002069
  0
CIRCLE
  5
5A
  8
TROUS
 10
235.0481853188084
 20
-652.5837984483146
 30
0.0
 40
0.0468750000004413
  0
CIRCLE
  5
5B
  8
TROUS
 10
235.0481853188083
 20
-653.5212984483144
 30
0.0
 40
0.0468749999998831
  0
CIRCLE
  5
5C
  8
TROUS
 10
230.5657396920547
 20
-659.4162984483146
 30
0.0
 40
0.04687500000001
  0
CIRCLE
  5
5D
  8
TROUS
 10
229.6282396920547
 20
-659.4162984483146
 30
0.0
 40
0.0468750000002069
  0
CIRCLE
  5
5E
  8
TROUS
 10
212.4232396920547
 20
-659.4162984483146
 30
0.0
 40
0.0468749999997705
  0
CIRCLE
  5
5F
  8
TROUS
 10
211.4857396920547
 20
-659.4162984483146
 30
0.0
 40
0.04687500000001
  0
CIRCLE
  5
60
  8
TROUS
 10
230.5657396920547
 20
-679.0512984483145
 30
0.0
 40
0.0468749999999726
  0
CIRCLE
  5
61
  8
TROUS
 10
229.6282396920547
 20
-679.0512984483146
 30
0.0
 40
0.0468749999997705
  0
CIRCLE
  5
62
  8
TROUS
 10
212.4232396920547
 20
-679.0512984483146
 30
0.0
 40
0.0468749999998831
  0
CIRCLE
  5
63
  8
TROUS
 10
211.4857396920547
 20
-679.0512984483146
 30
0.0
 40
0.0468749999997705
  0
CIRCLE
  5
64
  8
TROUS
 10
207.8343128105233
 20
-675.0764222305236
 30
0.0
 40
0.0468749999998973
  0
CIRCLE
  5
65
  8
TROUS
 10
206.9946235078643
 20
-674.2367329278645
 30
0.0
 40
0.0468749999998689
  0
CIRCLE
  5
66
  8
TROUS
 10
188.8748710722817
 20
-674.2367329278645
 30
0.0
 40
0.0468750000002069
  0
CIRCLE
  5
67
  8
TROUS
 10
188.0351817696227
 20
-675.0764222305236
 30
0.0
 40
0.0468749999999526
  0
CIRCLE
  5
68
  8
TROUS
 10
186.174747290073
 20
-686.7762984483147
 30
0.0
 40
0.0468750000001511
  0
CIRCLE
  5
69
  8
TROUS
 10
185.237247290073
 20
-686.7762984483147
 30
0.0
 40
0.0468750000001511
  0
CIRCLE
  5
6A
  8
TROUS
 10
168.032247290073
 20
-686.7762984483147
 30
0.0
 40
0.0468750000003241
  0
CIRCLE
  5
6B
  8
TROUS
 10
167.094747290073
 20
-686.7762984483147
 30
0.0
 40
0.0468749999999958
  0
CIRCLE
  5
6C
  8
TROUS
 10
161.6093128105233
 20
-667.4314222305233
 30
0.0
 40
0.0468749999998973
  0
CIRCLE
  5
6D
  8
TROUS
 10
160.7696235078642
 20
-666.5917329278643
 30
0.0
 40
0.0468749999998973
  0
CIRCLE
  5
6E
  8
TROUS
 10
161.6093128105234
 20
-685.5511746661059
 30
0.0
 40
0.0468750000001085
  0
CIRCLE
  5
6F
  8
TROUS
 10
160.7696235078642
 20
-686.390863968765
 30
0.0
 40
0.0468749999998831
  0
CIRCLE
  5
70
  8
TROUS
 10
149.9498710722819
 20
-686.390863968765
 30
0.0
 40
0.0468750000002069
  0
CIRCLE
  5
71
  8
TROUS
 10
149.1101817696228
 20
-685.5511746661059
 30
0.0
 40
0.0468750000004413
  0
CIRCLE
  5
72
  8
TROUS
 10
149.949871072282
 20
-666.5917329278643
 30
0.0
 40
0.0468750000002069
  0
CIRCLE
  5
73
  8
TROUS
 10
149.1101817696229
 20
-667.4314222305233
 30
0.0
 40
0.0468750000003241
  0
LINE
  5
75
  8
MAKE2D_VISIBLE_LINES
 10
146.3647472900732
 20
-815.9461386211926
 30
0.0
 11
242.3647472900732
 21
-815.9461386211926
 31
0.0
  0
LINE
  5
76
  8
MAKE2D_VISIBLE_LINES
 10
242.3647472900732
 20
-815.9461386211926
 30
0.0
 11
242.3647472900732
 21
-767.9461386211926
 31
0.0
  0
LINE
  5
77
  8
MAKE2D_VISIBLE_LINES
 10
242.3647472900732
 20
-767.9461386211926
 30
0.0
 11
146.3647472900732
 21
-767.9461386211926
 31
0.0
  0
LINE
  5
78
  8
MAKE2D_VISIBLE_LINES
 10
146.3647472900732
 20
-767.9461386211926
 30
0.0
 11
146.3647472900732
 21
-815.9461386211926
 31
0.0
  0
TEXT
  5
7A
  8
DIMENSIONS
 62
     7
 10
190.5968816915432
 20
-819.653087280716
 30
0.0
 40
2.5
  1
CÔTÉ A
  7
EXPLODED0
  0
TEXT
  5
9D
  8
DIMENSIONS
 62
     7
 10
134.7260959031893
 20
-792.3586895263153
 30
0.0
 40
2.5
  1
CÔTÉ D
  7
EXPLODED0
  0
TEXT
  5
9E
  8
DIMENSIONS
 62
     7
 10
190.5968816915432
 20
-765.3060340984451
 30
0.0
 40
2.5
  1
CÔTÉ B
  7
EXPLODED0
  0
DIMENSION
  5
9F
  8
DIMENSIONS
  2
*D1
 10
261.3967416532943
 20
-687.8762984483146
 30
0.0
 11
261.3967416532943
 21
-663.8762984483146
 31
0.0
 70
    32
  1
<>
  3
IMPERIAL_1_15
 13
242.3647472900732
 23
-639.8762984483146
 33
0.0
 14
242.3647472900732
 24
-687.8762984483146
 34
0.0
 50
90.0
1001
ACAD
1000
DSTYLE
1002
{
1070
   287
1070
     4
1070
   279
1070
     1
1002
}
  0
INSERT
  5
B0
  8
DIMENSIONS
  2
*X5
 10
0.0
 20
0.0
 30
0.0
  0
INSERT
  5
B7
  8
DIMENSIONS
  2
*X6
 10
0.0
 20
0.0
 30
0.0
  0
INSERT
  5
B8
  8
DIMENSIONS
 62
     1
  2
*X7
 10
0.0
 20
0.0
 30
0.0
  0
LINE
  5
BA
  8
VISIBLE
 10
241.2565239853698
 20
-662.8862984483146
 30
0.0
 11
241.9897472900732
 21
-662.8862984483146
 31
0.0
  0
LINE
  5
BB
  8
VISIBLE
 10
241.9897472900732
 20
-662.8862984483146
 30
0.0
 11
241.9897472900732
 21
-663.1262984483146
 31
0.0
  0
ARC
  5
BC
  8
VISIBLE
 10
241.6147472900733
 20
-663.1262984483147
 30
0.0
 40
0.3749999999999147
 50
269.999999999987
 51
0.0000000000173701
  0
LINE
  5
BD
  8
VISIBLE
 10
241.6147472900732
 20
-663.5012984483146
 30
0.0
 11
240.3847472900732
 21
-663.5012984483146
 31
0.0
  0
ARC
  5
BE
  8
VISIBLE
 10
240.3847472900731
 20
-663.1262984483147
 30
0.0
 40
0.3749999999998863
 50
179.9999999999826
 51
270.000000000013
  0
LINE
  5
BF
  8
VISIBLE
 10
240.0097472900732
 20
-663.1262984483146
 30
0.0
 11
240.0097472900732
 21
-662.1029971642022
 31
0.0
  0
ARC
  5
C0
  8
VISIBLE
 10
239.7597472900732
 20
-662.1029971642023
 30
0.0
 40
0.2499999999999432
 50
0.0000000000260551
 51
94.58856573578944
  0
LINE
  5
C1
  8
VISIBLE
 10
239.7397472900732
 20
-661.8537984483147
 30
0.0
 11
239.7397472900732
 21
-641.8987984483147
 31
0.0
  0
ARC
  5
C2
  8
VISIBLE
 10
239.7597472900733
 20
-641.6495997324273
 30
0.0
 40
0.2499999999998281
 50
265.4114342641825
 51
0.0000000000521102
  0
LINE
  5
C3
  8
VISIBLE
 10
240.0097472900732
 20
-641.6495997324271
 30
0.0
 11
240.0097472900732
 21
-640.6262984483146
 31
0.0
  0
ARC
  5
C4
  8
VISIBLE
 10
240.3847472900732
 20
-640.6262984483147
 30
0.0
 40
0.3750000000000853
 50
90.00000000001303
 51
179.9999999999826
  0
LINE
  5
C5
  8
VISIBLE
 10
240.3847472900732
 20
-640.2512984483146
 30
0.0
 11
241.6147472900732
 21
-640.2512984483146
 31
0.0
  0
ARC
  5
C6
  8
VISIBLE
 10
241.614747290073
 20
-640.6262984483149
 30
0.0
 40
0.3750000000002274
 50
0.0000000000347401
 51
89.9999999999783
  0
LINE
  5
C7
  8
VISIBLE
 10
241.9897472900732
 20
-640.6262984483146
 30
0.0
 11
241.9897472900732
 21
-640.8662984483146
 31
0.0
  0
LINE
  5
C8
  8
VISIBLE
 10
241.9897472900732
 20
-640.8662984483146
 30
0.0
 11
241.2565239853698
 21
-640.8662984483146
 31
0.0
  0
ARC
  5
C9
  8
VISIBLE
 10
241.1681356377215
 20
-640.954686795963
 30
0.0
 40
0.125000000000001
 50
45.00000000000921
 51
225.0
  0
LINE
  5
CA
  8
VISIBLE
 10
241.0797472900732
 20
-641.0430751436113
 30
0.0
 11
241.0797472900732
 21
-641.409521753018
 31
0.0
  0
ARC
  5
CB
  8
VISIBLE
 10
241.1681356377215
 20
-641.4979101006663
 30
0.0
 40
0.125000000000001
 50
134.9999999999908
 51
314.9999999999908
  0
LINE
  5
CC
  8
VISIBLE
 10
241.2565239853698
 20
-641.5862984483147
 30
0.0
 11
241.9897472900732
 21
-641.5862984483147
 31
0.0
  0
LINE
  5
CD
  8
VISIBLE
 10
241.9897472900732
 20
-641.5862984483147
 30
0.0
 11
241.9897472900732
 21
-662.1662984483147
 31
0.0
  0
LINE
  5
CE
  8
VISIBLE
 10
241.9897472900732
 20
-662.1662984483147
 30
0.0
 11
241.2565239853698
 21
-662.1662984483147
 31
0.0
  0
ARC
  5
CF
  8
VISIBLE
 10
241.1681356377215
 20
-662.2546867959629
 30
0.0
 40
0.1249999999999407
 50
44.99999999996316
 51
225.0000000000184
  0
LINE
  5
D0
  8
VISIBLE
 10
241.0797472900732
 20
-662.3430751436113
 30
0.0
 11
241.0797472900732
 21
-662.7095217530181
 31
0.0
  0
ARC
  5
D1
  8
VISIBLE
 10
241.1681356377215
 20
-662.7979101006663
 30
0.0
 40
0.1249999999999206
 50
135.0000000000276
 51
315.0000000000184
  0
LINE
  5
D2
  8
VISIBLE
 10
232.3597472900732
 20
-687.5012984483146
 30
0.0
 11
232.3597472900732
 21
-666.2412984483146
 31
0.0
  0
LINE
  5
D3
  8
VISIBLE
 10
232.3597472900732
 20
-666.2412984483146
 30
0.0
 11
241.9897472900732
 21
-666.2412984483146
 31
0.0
  0
LINE
  5
D4
  8
VISIBLE
 10
241.9897472900732
 20
-666.2412984483146
 30
0.0
 11
241.9897472900732
 21
-687.5012984483146
 31
0.0
  0
LINE
  5
D5
  8
VISIBLE
 10
241.9897472900732
 20
-687.5012984483146
 30
0.0
 11
232.3597472900732
 21
-687.5012984483146
 31
0.0
  0
LINE
  5
D6
  8
VISIBLE
 62
     6
 10
157.8022472900732
 20
-661.2837984483147
 30
0.0
 11
157.8022472900732
 21
-658.8128792809695
 31
0.0
  0
LINE
  5
D7
  8
VISIBLE
 62
     6
 10
157.8022472900732
 20
-658.8128792809695
 30
0.0
 11
157.5522472900732
 21
-658.8128792809695
 31
0.0
  0
LINE
  5
D8
  8
VISIBLE
 62
     6
 10
157.5522472900732
 20
-658.8128792809695
 30
0.0
 11
157.5522472900732
 21
-661.2837984483147
 31
0.0
  0
LINE
  5
D9
  8
VISIBLE
 62
     6
 10
157.5522472900732
 20
-661.2837984483147
 30
0.0
 11
157.8022472900732
 21
-661.2837984483147
 31
0.0
  0
LINE
  5
DA
  8
VISIBLE
 10
229.849747290073
 20
-687.5012984483146
 30
0.0
 11
208.589747290073
 21
-687.5012984483146
 31
0.0
  0
LINE
  5
DB
  8
VISIBLE
 10
208.589747290073
 20
-687.5012984483146
 30
0.0
 11
208.589747290073
 21
-680.5212984483146
 31
0.0
  0
LINE
  5
DC
  8
VISIBLE
 10
208.589747290073
 20
-680.5212984483146
 30
0.0
 11
229.849747290073
 21
-680.5212984483146
 31
0.0
  0
LINE
  5
DD
  8
VISIBLE
 10
229.849747290073
 20
-680.5212984483146
 30
0.0
 11
229.849747290073
 21
-687.5012984483146
 31
0.0
  0
LINE
  5
DE
  8
MAKE2D_VISIBLE_LINES
 10
146.3647472900732
 20
-639.8762984483146
 30
0.0
 11
242.3647472900732
 21
-639.8762984483146
 31
0.0
  0
LINE
  5
DF
  8
MAKE2D_VISIBLE_LINES
 10
242.3647472900732
 20
-639.8762984483146
 30
0.0
 11
242.3647472900732
 21
-687.8762984483146
 31
0.0
  0
LINE
  5
E0
  8
MAKE2D_VISIBLE_LINES
 10
242.3647472900732
 20
-687.8762984483146
 30
0.0
 11
146.3647472900732
 21
-687.8762984483146
 31
0.0
  0
LINE
  5
E1
  8
MAKE2D_VISIBLE_LINES
 10
146.3647472900732
 20
-687.8762984483146
 30
0.0
 11
146.3647472900732
 21
-639.8762984483146
 31
0.0
  0
ARC
  5
E2
  8
VISIBLE
 10
157.6772472900732
 20
-650.3137984483147
 30
0.0
 40
8.499999999999938
 50
179.9999999999992
 51
269.1573846342151
  0
LINE
  5
E3
  8
VISIBLE
 10
149.1772472900732
 20
-650.3137984483146
 30
0.0
 11
149.1772472900732
 21
-643.3137984483147
 31
0.0
  0
ARC
  5
E4
  8
VISIBLE
 10
149.5522472900731
 20
-643.3137984483146
 30
0.0
 40
0.3749999999999432
 50
89.99999999999132
 51
180.0000000000174
  0
LINE
  5
E5
  8
VISIBLE
 10
149.5522472900732
 20
-642.9387984483146
 30
0.0
 11
165.8022472900732
 21
-642.9387984483147
 31
0.0
  0
ARC
  5
E6
  8
VISIBLE
 10
165.8022472900732
 20
-643.3137984483146
 30
0.0
 40
0.3749999999998863
 50
359.9999999999827
 51
90.00000000000435
  0
LINE
  5
E7
  8
VISIBLE
 10
166.1772472900732
 20
-643.3137984483147
 30
0.0
 11
166.1772472900732
 21
-650.3137984483146
 31
0.0
  0
ARC
  5
E8
  8
VISIBLE
 10
157.6772472900733
 20
-650.3137984483147
 30
0.0
 40
8.499999999999886
 50
270.8426153657843
 51
0.0000000000007663
  0
INSERT
  5
E9
  8
DIMENSIONS
  2
*X8
 10
0.0
 20
0.0
 30
0.0
  0
INSERT
  5
EA
  8
DIMENSIONS
  2
*X9
 10
0.0
 20
0.0
 30
0.0
  0
LINE
  5
EB
  8
VISIBLE
 62
     5
 10
157.8022472900732
 20
-659.3137984483146
 30
0.0
 11
166.5004705947765
 21
-659.3137984483146
 31
0.0
  0
ARC
  5
EC
  8
VISIBLE
 62
     5
 10
166.5888589424248
 20
-659.2254101006663
 30
0.0
 40
0.125000000000001
 50
225.0000000000092
 51
44.99999999994473
  0
LINE
  5
ED
  8
VISIBLE
 62
     5
 10
166.6772472900732
 20
-659.1370217530181
 30
0.0
 11
166.6772472900732
 21
-642.6155751436113
 31
0.0
  0
ARC
  5
EE
  8
VISIBLE
 62
     5
 10
166.5888589424248
 20
-642.527186795963
 30
0.0
 40
0.1250000000000211
 50
315.0
 51
134.9999999999908
  0
LINE
  5
EF
  8
VISIBLE
 62
     5
 10
166.5004705947765
 20
-642.4387984483146
 30
0.0
 11
148.8540239853698
 21
-642.4387984483146
 31
0.0
  0
ARC
  5
F0
  8
VISIBLE
 62
     5
 10
148.7656356377215
 20
-642.527186795963
 30
0.0
 40
0.125000000000001
 50
45.00000000000921
 51
225.0
  0
LINE
  5
F1
  8
VISIBLE
 62
     5
 10
148.6772472900732
 20
-642.6155751436113
 30
0.0
 11
148.6772472900732
 21
-659.1370217530181
 31
0.0
  0
ARC
  5
F2
  8
VISIBLE
 62
     5
 10
148.7656356377215
 20
-659.2254101006663
 30
0.0
 40
0.1249999999999407
 50
135.0000000000368
 51
314.9999999999816
  0
LINE
  5
F3
  8
VISIBLE
 62
     5
 10
148.8540239853698
 20
-659.3137984483146
 30
0.0
 11
157.5522472900732
 21
-659.3137984483146
 31
0.0
  0
TEXT
  5
F4
  8
DIMENSIONS
 62
     7
 10
190.5527881789813
 20
-634.7228637095373
 30
0.0
 40
2.5
  1
CÔTÉ A
  7
EXPLODED0
  0
INSERT
  5
F5
  8
DIMENSIONS
  2
*X10
 10
0.0
 20
0.0
 30
0.0
  0
INSERT
  5
F6
  8
DIMENSIONS
  2
*X11
 10
0.0
 20
0.0
 30
0.0
  0
INSERT
  5
F7
  8
DIMENSIONS
  2
*X12
 10
0.0
 20
0.0
 30
0.0
  0
TEXT
  5
F8
  8
DIMENSIONS
 62
     7
 10
243.0665908175698
 20
-652.4763051629602
 30
0.0
 40
2.5
  1
CÔTÉ B
  7
EXPLODED0
  0
INSERT
  5
F9
  8
DIMENSIONS
  2
*X13
 10
0.0
 20
0.0
 30
0.0
  0
INSERT
  5
FA
  8
DIMENSIONS
  2
*X14
 10
0.0
 20
0.0
 30
0.0
  0
TEXT
  5
FB
  8
DIMENSIONS
 62
     7
 10
190.5968816915432
 20
-691.583247107838
 30
0.0
 40
2.5
  1
CÔTÉ C
  7
EXPLODED0
  0
DIMENSION
  5
FC
  8
DIMENSIONS
  2
*D3
 10
242.3647472900732
 20
-693.61602197607
 30
0.0
 11
194.3647472900732
 21
-693.61602197607
 31
0.0
 70
    32
  1
<>
  3
IMPERIAL_1_15
 13
146.3647472900732
 23
-687.8762984483146
 33
0.0
 14
242.3647472900732
 24
-687.8762984483146
 34
0.0
  0
TEXT
  5
10A
  8
DIMENSIONS
 62
     7
 10
134.7260959031893
 20
-664.2888493534373
 30
0.0
 40
2.5
  1
CÔTÉ D
  7
EXPLODED0
  0
LINE
  5
10C
  8
CONTOUR
 10
187.654747290073
 20
-687.5012984483146
 30
0.0
 11
187.654747290073
 21
-673.8312984483149
 31
0.0
  0
LINE
  5
10D
  8
CONTOUR
 10
187.654747290073
 20
-673.8312984483149
 30
0.0
 11
208.214747290073
 21
-673.8312984483149
 31
0.0
  0
LINE
  5
10E
  8
CONTOUR
 10
208.214747290073
 20
-673.8312984483149
 30
0.0
 11
208.214747290073
 21
-687.5012984483146
 31
0.0
  0
LINE
  5
10F
  8
CONTOUR
 10
208.214747290073
 20
-687.5012984483146
 30
0.0
 11
187.654747290073
 21
-687.5012984483146
 31
0.0
  0
LINE
  5
110
  8
VISIBLE
 10
168.6147472900732
 20
-658.6262984483147
 30
0.0
 11
168.6147472900732
 21
-661.2837984483147
 31
0.0
  0
LINE
  5
111
  8
VISIBLE
 10
168.6147472900732
 20
-661.2837984483147
 30
0.0
 11
157.8022472900732
 21
-661.2837984483147
 31
0.0
  0
LINE
  5
112
  8
VISIBLE
 10
157.5522472900732
 20
-661.2837984483147
 30
0.0
 11
149.8647472900732
 21
-661.2837984483147
 31
0.0
  0
ARC
  5
113
  8
VISIBLE
 10
149.8647472900732
 20
-661.4087984483147
 30
0.0
 40
0.125
 50
89.99999999998697
 51
180.0
  0
LINE
  5
114
  8
VISIBLE
 10
149.7397472900732
 20
-661.4087984483147
 30
0.0
 11
149.7397472900732
 21
-662.7837984483147
 31
0.0
  0
ARC
  5
115
  8
VISIBLE
 10
148.2397472900732
 20
-662.7837984483147
 30
0.0
 40
1.500000000000028
 50
180.0
 51
0.0
  0
LINE
  5
116
  8
VISIBLE
 10
146.7397472900732
 20
-662.7837984483147
 30
0.0
 11
146.7397472900732
 21
-640.3512984483148
 31
0.0
  0
ARC
  5
117
  8
VISIBLE
 10
146.8397472900733
 20
-640.3512984483148
 30
0.0
 40
0.100000000000108
 50
90.00000000006514
 51
180.0
  0
LINE
  5
118
  8
VISIBLE
 10
146.8397472900732
 20
-640.2512984483146
 30
0.0
 11
168.6147472900732
 21
-640.2512984483147
 31
0.0
  0
LINE
  5
119
  8
VISIBLE
 10
168.6147472900732
 20
-640.2512984483147
 30
0.0
 11
168.6147472900732
 21
-658.6262984483147
 31
0.0
  0
ARC
  5
11A
  8
VISIBLE
 62
     5
 10
186.851358942315
 20
-666.6929101005566
 30
0.0
 40
0.1250000000000211
 50
225.0000000711156
 51
44.99999964428363
  0
LINE
  5
11B
  8
VISIBLE
 62
     5
 10
186.939747290512
 20
-666.604521753457
 30
0.0
 11
186.939747290073
 21
-666.2180751436113
 31
0.0
  0
ARC
  5
11C
  8
VISIBLE
 62
     5
 10
186.8513589424247
 20
-666.1296867959629
 30
0.0
 40
0.125000000000001
 50
314.9999999999908
 51
134.9999999999908
  0
LINE
  5
11D
  8
VISIBLE
 62
     5
 10
186.7629705947763
 20
-666.0412984483146
 30
0.0
 11
166.5065239853696
 21
-666.0412984483146
 31
0.0
  0
ARC
  5
11E
  8
VISIBLE
 62
     5
 10
166.4181356377213
 20
-666.1296867959629
 30
0.0
 40
0.125000000000001
 50
45.00000000000921
 51
225.0
  0
LINE
  5
11F
  8
VISIBLE
 62
     5
 10
166.329747290073
 20
-666.2180751436113
 30
0.0
 11
166.329747289634
 21
-666.604521753457
 31
0.0
  0
ARC
  5
120
  8
VISIBLE
 62
     5
 10
166.418135637831
 20
-666.6929101005566
 30
0.0
 40
0.1249999999999809
 50
135.0000003557072
 51
314.999999928866
  0
LINE
  5
121
  8
VISIBLE
 62
     5
 10
166.5065239853696
 20
-666.7812984483146
 30
0.0
 11
186.7629705947763
 21
-666.7812984483146
 31
0.0
  0
ARC
  5
122
  8
VISIBLE
 10
166.2563589424246
 20
-687.2296867959631
 30
0.0
 40
0.1249999999999608
 50
315.000000000046
 51
134.999999999954
  0
LINE
  5
123
  8
VISIBLE
 10
166.1679705947764
 20
-687.1412984483146
 30
0.0
 11
165.989747290073
 21
-687.1412984483147
 31
0.0
  0
LINE
  5
124
  8
VISIBLE
 10
165.989747290073
 20
-687.1412984483147
 30
0.0
 11
165.989747290073
 21
-666.0562984483147
 31
0.0
  0
ARC
  5
125
  8
VISIBLE
 10
165.7197472900731
 20
-666.0562984483146
 30
0.0
 40
0.269999999999925
 50
359.9999999999759
 51
90.00000000001809
  0
LINE
  5
126
  8
VISIBLE
 10
165.719747290073
 20
-665.7862984483147
 30
0.0
 11
165.384747290073
 21
-665.7862984483147
 31
0.0
  0
ARC
  5
127
  8
VISIBLE
 10
165.3847472900731
 20
-665.4112984483145
 30
0.0
 40
0.3750000000002274
 50
180.0000000000347
 51
269.9999999999827
  0
LINE
  5
128
  8
VISIBLE
 10
165.009747290073
 20
-665.4112984483147
 30
0.0
 11
165.009747290073
 21
-664.1812984483147
 31
0.0
  0
ARC
  5
129
  8
VISIBLE
 10
165.384747290073
 20
-664.1812984483147
 30
0.0
 40
0.375
 50
89.99999999999567
 51
180.0
  0
LINE
  5
12A
  8
VISIBLE
 10
165.384747290073
 20
-663.8062984483147
 30
0.0
 11
165.624747290073
 21
-663.8062984483147
 31
0.0
  0
LINE
  5
12B
  8
VISIBLE
 10
165.624747290073
 20
-663.8062984483147
 30
0.0
 11
165.624747290073
 21
-664.539521753018
 31
0.0
  0
ARC
  5
12C
  8
VISIBLE
 10
165.7131356377213
 20
-664.6279101006663
 30
0.0
 40
0.1250000000000211
 50
135.0
 51
314.9999999999908
  0
LINE
  5
12D
  8
VISIBLE
 10
165.8015239853696
 20
-664.7162984483147
 30
0.0
 11
166.1679705947764
 21
-664.7162984483147
 31
0.0
  0
ARC
  5
12E
  8
VISIBLE
 10
166.2563589424246
 20
-664.6279101006662
 30
0.0
 40
0.1250000000000412
 50
225.0000000000645
 51
44.99999999997237
  0
LINE
  5
12F
  8
VISIBLE
 10
166.344747290073
 20
-664.539521753018
 30
0.0
 11
166.344747290073
 21
-663.8062984483147
 31
0.0
  0
LINE
  5
130
  8
VISIBLE
 10
166.344747290073
 20
-663.8062984483147
 30
0.0
 11
186.924747290073
 21
-663.8062984483147
 31
0.0
  0
LINE
  5
131
  8
VISIBLE
 10
186.924747290073
 20
-663.8062984483147
 30
0.0
 11
186.924747290073
 21
-664.539521753018
 31
0.0
  0
ARC
  5
132
  8
VISIBLE
 10
187.0131356377213
 20
-664.6279101006662
 30
0.0
 40
0.1249999999999608
 50
135.000000000046
 51
314.999999999954
  0
LINE
  5
133
  8
VISIBLE
 10
187.1015239853696
 20
-664.7162984483147
 30
0.0
 11
187.4679705947763
 21
-664.7162984483147
 31
0.0
  0
ARC
  5
134
  8
VISIBLE
 10
187.5563589424247
 20
-664.6279101006663
 30
0.0
 40
0.125000000000001
 50
225.0000000000092
 51
45.0
  0
LINE
  5
135
  8
VISIBLE
 10
187.644747290073
 20
-664.539521753018
 30
0.0
 11
187.644747290073
 21
-663.8062984483147
 31
0.0
  0
LINE
  5
136
  8
VISIBLE
 10
187.644747290073
 20
-663.8062984483147
 30
0.0
 11
187.884747290073
 21
-663.8062984483147
 31
0.0
  0
ARC
  5
137
  8
VISIBLE
 10
187.884747290073
 20
-664.1812984483147
 30
0.0
 40
0.375
 50
0.0
 51
90.00000000000868
  0
LINE
  5
138
  8
VISIBLE
 10
188.259747290073
 20
-664.1812984483147
 30
0.0
 11
188.259747290073
 21
-665.4112984483147
 31
0.0
  0
ARC
  5
139
  8
VISIBLE
 10
187.8847472900729
 20
-665.4112984483146
 30
0.0
 40
0.3750000000001137
 50
270.0000000000173
 51
359.9999999999827
  0
LINE
  5
13A
  8
VISIBLE
 10
187.884747290073
 20
-665.7862984483147
 30
0.0
 11
187.549747290073
 21
-665.7862984483147
 31
0.0
  0
ARC
  5
13B
  8
VISIBLE
 10
187.5497472900732
 20
-666.056298448315
 30
0.0
 40
0.2700000000003229
 50
90.00000000004826
 51
179.9999999999276
  0
LINE
  5
13C
  8
VISIBLE
 10
187.279747290073
 20
-666.0562984483147
 30
0.0
 11
187.279747290073
 21
-687.1412984483147
 31
0.0
  0
LINE
  5
13D
  8
VISIBLE
 10
187.279747290073
 20
-687.1412984483147
 30
0.0
 11
187.1015239853696
 21
-687.1412984483146
 31
0.0
  0
ARC
  5
13E
  8
VISIBLE
 10
187.0131356377213
 20
-687.2296867959631
 30
0.0
 40
0.1250000000000412
 50
45.00000000006448
 51
224.9999999999724
  0
LINE
  5
13F
  8
VISIBLE
 10
186.924747290073
 20
-687.3180751436113
 30
0.0
 11
186.924747290073
 21
-687.5012984483146
 31
0.0
  0
LINE
  5
140
  8
VISIBLE
 10
186.924747290073
 20
-687.5012984483146
 30
0.0
 11
166.344747290073
 21
-687.5012984483146
 31
0.0
  0
LINE
  5
141
  8
VISIBLE
 10
166.344747290073
 20
-687.5012984483146
 30
0.0
 11
166.344747290073
 21
-687.3180751436113
 31
0.0
  0
INSERT
  5
142
  8
VISIBLE
  2
*X15
 10
0.0
 20
0.0
 30
0.0
  0
ARC
  5
143
  8
VISIBLE
 62
     6
 10
96.72175743062266
 20
-665.9451733539677
 30
0.0
 40
0.125
 50
180.0
 51
0.0
  0
LINE
  5
144
  8
VISIBLE
 10
88.90975743062266
 20
-665.8201733539677
 30
0.0
 11
96.59675743062266
 21
-665.8201733539677
 31
0.0
  0
LINE
  5
145
  8
VISIBLE
 10
96.84675743062266
 20
-665.8201733539677
 30
0.0
 11
107.6597574306227
 21
-665.8201733539677
 31
0.0
  0
LINE
  5
146
  8
VISIBLE
 62
     6
 10
96.59675743062266
 20
-665.9451733539677
 30
0.0
 11
96.59675743062266
 21
-665.8201733539677
 31
0.0
  0
LINE
  5
147
  8
VISIBLE
 62
     6
 10
96.84675743062266
 20
-665.9451733539677
 30
0.0
 11
96.84675743062266
 21
-665.8201733539677
 31
0.0
  0
LINE
  5
148
  8
VISIBLE
 10
107.6597574306227
 20
-665.8201733539677
 30
0.0
 11
107.6597574306227
 21
-666.5301733539677
 31
0.0
  0
LINE
  5
149
  8
VISIBLE
 10
107.6597574306227
 20
-666.5301733539677
 30
0.0
 11
88.86380158588483
 21
-666.5301733539677
 31
0.0
  0
LINE
  5
14A
  8
VISIBLE
 10
88.90975743062266
 20
-665.8201733539677
 30
0.0
 11
88.90299682096997
 21
-665.8303746208379
 31
0.0
  0
LINE
  5
14B
  8
VISIBLE
 10
88.90299682096997
 20
-665.8303746208379
 30
0.0
 11
88.89624062667309
 21
-665.8410646121476
 31
0.0
  0
LINE
  5
14C
  8
VISIBLE
 10
88.89624062667309
 20
-665.8410646121476
 30
0.0
 11
88.88959233036815
 21
-665.8521782869002
 31
0.0
  0
LINE
  5
14D
  8
VISIBLE
 10
88.88959233036815
 20
-665.8521782869002
 30
0.0
 11
88.88315541469126
 21
-665.8636506040986
 31
0.0
  0
LINE
  5
14E
  8
VISIBLE
 10
88.88315541469126
 20
-665.8636506040986
 30
0.0
 11
88.87703336227855
 21
-665.8754165227456
 31
0.0
  0
LINE
  5
14F
  8
VISIBLE
 10
88.87703336227855
 20
-665.8754165227456
 30
0.0
 11
88.87412274812004
 21
-665.8813892573007
 31
0.0
  0
LINE
  5
150
  8
VISIBLE
 10
88.87412274812004
 20
-665.8813892573007
 30
0.0
 11
88.87132965576616
 21
-665.8874110018442
 31
0.0
  0
LINE
  5
151
  8
VISIBLE
 10
88.87132965576616
 20
-665.8874110018442
 30
0.0
 11
88.86866702054638
 21
-665.8934736262513
 31
0.0
  0
LINE
  5
152
  8
VISIBLE
 10
88.86866702054638
 20
-665.8934736262513
 30
0.0
 11
88.86614777779019
 21
-665.8995690003975
 31
0.0
  0
LINE
  5
153
  8
VISIBLE
 10
88.86614777779019
 20
-665.8995690003975
 30
0.0
 11
88.86378486282715
 21
-665.905688994158
 31
0.0
  0
LINE
  5
154
  8
VISIBLE
 10
88.86378486282715
 20
-665.905688994158
 30
0.0
 11
88.86159121098676
 21
-665.9118254774083
 31
0.0
  0
LINE
  5
155
  8
VISIBLE
 10
88.86159121098676
 20
-665.9118254774083
 30
0.0
 11
88.85957975759854
 21
-665.9179703200239
 31
0.0
  0
LINE
  5
156
  8
VISIBLE
 10
88.85957975759854
 20
-665.9179703200239
 30
0.0
 11
88.85776343799199
 21
-665.9241153918799
 31
0.0
  0
LINE
  5
157
  8
VISIBLE
 10
88.85776343799199
 20
-665.9241153918799
 30
0.0
 11
88.85615518749663
 21
-665.9302525628518
 31
0.0
  0
LINE
  5
158
  8
VISIBLE
 10
88.85615518749663
 20
-665.9302525628518
 30
0.0
 11
88.85476794144199
 21
-665.936373702815
 31
0.0
  0
LINE
  5
159
  8
VISIBLE
 10
88.85476794144199
 20
-665.936373702815
 30
0.0
 11
88.85416123737042
 21
-665.9394257205045
 31
0.0
  0
LINE
  5
15A
  8
VISIBLE
 10
88.85416123737042
 20
-665.9394257205045
 30
0.0
 11
88.85361463515758
 21
-665.942470681645
 31
0.0
  0
LINE
  5
15B
  8
VISIBLE
 10
88.85361463515758
 20
-665.942470681645
 30
0.0
 11
88.85312975171968
 21
-665.9455075699709
 31
0.0
  0
LINE
  5
15C
  8
VISIBLE
 10
88.85312975171968
 20
-665.9455075699709
 30
0.0
 11
88.8527082039729
 21
-665.9485353692169
 31
0.0
  0
LINE
  5
15D
  8
VISIBLE
 10
88.8527082039729
 20
-665.9485353692169
 30
0.0
 11
88.85235160883343
 21
-665.951553063117
 31
0.0
  0
LINE
  5
15E
  8
VISIBLE
 10
88.85235160883343
 20
-665.951553063117
 30
0.0
 11
88.85206158321748
 21
-665.954559635406
 31
0.0
  0
LINE
  5
15F
  8
VISIBLE
 10
88.85206158321748
 20
-665.954559635406
 30
0.0
 11
88.85183974404121
 21
-665.9575540698181
 31
0.0
  0
LINE
  5
160
  8
VISIBLE
 10
88.85183974404121
 20
-665.9575540698181
 30
0.0
 11
88.85168770822084
 21
-665.960535350088
 31
0.0
  0
LINE
  5
161
  8
VISIBLE
 10
88.85168770822084
 20
-665.960535350088
 30
0.0
 11
88.85160709267252
 21
-665.9635024599498
 31
0.0
  0
LINE
  5
162
  8
VISIBLE
 10
88.85160709267252
 20
-665.9635024599498
 30
0.0
 11
88.85159951431248
 21
-665.9664543831382
 31
0.0
  0
LINE
  5
163
  8
VISIBLE
 10
88.85159951431248
 20
-665.9664543831382
 30
0.0
 11
88.85166659005688
 21
-665.9693901033874
 31
0.0
  0
LINE
  5
164
  8
VISIBLE
 10
88.85166659005688
 20
-665.9693901033874
 30
0.0
 11
88.85180993682192
 21
-665.9723086044318
 31
0.0
  0
LINE
  5
165
  8
VISIBLE
 10
88.85180993682192
 20
-665.9723086044318
 30
0.0
 11
88.85203117152379
 21
-665.9752088700059
 31
0.0
  0
LINE
  5
166
  8
VISIBLE
 10
88.85203117152379
 20
-665.9752088700059
 30
0.0
 11
88.85233191107866
 21
-665.9780898838442
 31
0.0
  0
LINE
  5
167
  8
VISIBLE
 10
88.85233191107866
 20
-665.9780898838442
 30
0.0
 11
88.85271377240275
 21
-665.9809506296812
 31
0.0
  0
LINE
  5
168
  8
VISIBLE
 10
88.85271377240275
 20
-665.9809506296812
 30
0.0
 11
88.85317837241224
 21
-665.9837900912511
 31
0.0
  0
LINE
  5
169
  8
VISIBLE
 10
88.85317837241224
 20
-665.9837900912511
 30
0.0
 11
88.85372732802333
 21
-665.9866072522884
 31
0.0
  0
LINE
  5
16A
  8
VISIBLE
 10
88.85372732802333
 20
-665.9866072522884
 30
0.0
 11
88.85436225615217
 21
-665.9894010965276
 31
0.0
  0
LINE
  5
16B
  8
VISIBLE
 10
88.85436225615217
 20
-665.9894010965276
 30
0.0
 11
88.85508477371498
 21
-665.992170607703
 31
0.0
  0
LINE
  5
16C
  8
VISIBLE
 10
88.85508477371498
 20
-665.992170607703
 30
0.0
 11
88.85589649762795
 21
-665.994914769549
 31
0.0
  0
LINE
  5
16D
  8
VISIBLE
 10
88.85589649762795
 20
-665.994914769549
 30
0.0
 11
88.85679904480727
 21
-665.9976325658001
 31
0.0
  0
LINE
  5
16E
  8
VISIBLE
 10
88.85679904480727
 20
-665.9976325658001
 30
0.0
 11
88.85779403216912
 21
-666.000322980191
 31
0.0
  0
LINE
  5
16F
  8
VISIBLE
 10
88.85779403216912
 20
-666.000322980191
 30
0.0
 11
88.8588830766297
 21
-666.0029849964556
 31
0.0
  0
LINE
  5
170
  8
VISIBLE
 10
88.8588830766297
 20
-666.0029849964556
 30
0.0
 11
88.86006779510517
 21
-666.0056175983285
 31
0.0
  0
LINE
  5
171
  8
VISIBLE
 10
88.86006779510517
 20
-666.0056175983285
 30
0.0
 11
88.8613489917546
 21
-666.0082200554723
 31
0.0
  0
LINE
  5
172
  8
VISIBLE
 10
88.8613489917546
 20
-666.0082200554723
 30
0.0
 11
88.86272421970844
 21
-666.0107927812621
 31
0.0
  0
LINE
  5
173
  8
VISIBLE
 10
88.86272421970844
 20
-666.0107927812621
 30
0.0
 11
88.86419021934
 21
-666.0133364750006
 31
0.0
  0
LINE
  5
174
  8
VISIBLE
 10
88.86419021934
 20
-666.0133364750006
 30
0.0
 11
88.8657437310226
 21
-666.015851835991
 31
0.0
  0
LINE
  5
175
  8
VISIBLE
 10
88.8657437310226
 20
-666.015851835991
 30
0.0
 11
88.86738149512954
 21
-666.0183395635363
 31
0.0
  0
LINE
  5
176
  8
VISIBLE
 10
88.86738149512954
 20
-666.0183395635363
 30
0.0
 11
88.86910025203414
 21
-666.0208003569396
 31
0.0
  0
LINE
  5
177
  8
VISIBLE
 10
88.86910025203414
 20
-666.0208003569396
 30
0.0
 11
88.8708967421097
 21
-666.023234915504
 31
0.0
  0
LINE
  5
178
  8
VISIBLE
 10
88.8708967421097
 20
-666.023234915504
 30
0.0
 11
88.87276770572953
 21
-666.0256439385323
 31
0.0
  0
LINE
  5
179
  8
VISIBLE
 10
88.87276770572953
 20
-666.0256439385323
 30
0.0
 11
88.87470988326695
 21
-666.0280281253276
 31
0.0
  0
LINE
  5
17A
  8
VISIBLE
 10
88.87470988326695
 20
-666.0280281253276
 30
0.0
 11
88.87672001509523
 21
-666.0303881751931
 31
0.0
  0
LINE
  5
17B
  8
VISIBLE
 10
88.87672001509523
 20
-666.0303881751931
 30
0.0
 11
88.87879484158773
 21
-666.0327247874318
 31
0.0
  0
LINE
  5
17C
  8
VISIBLE
 10
88.87879484158773
 20
-666.0327247874318
 30
0.0
 11
88.88093110311773
 21
-666.0350386613466
 31
0.0
  0
LINE
  5
17D
  8
VISIBLE
 10
88.88093110311773
 20
-666.0350386613466
 30
0.0
 11
88.88537489278352
 21
-666.0396009914168
 31
0.0
  0
LINE
  5
17E
  8
VISIBLE
 10
88.88537489278352
 20
-666.0396009914168
 30
0.0
 11
88.89002530707907
 21
-666.0440807598281
 31
0.0
  0
LINE
  5
17F
  8
VISIBLE
 10
88.89002530707907
 20
-666.0440807598281
 30
0.0
 11
88.89485626899088
 21
-666.048483561005
 31
0.0
  0
LINE
  5
180
  8
VISIBLE
 10
88.89485626899088
 20
-666.048483561005
 30
0.0
 11
88.89984170150538
 21
-666.0528149893714
 31
0.0
  0
LINE
  5
181
  8
VISIBLE
 10
88.89984170150538
 20
-666.0528149893714
 30
0.0
 11
88.91017167028852
 21
-666.0612861053705
 31
0.0
  0
LINE
  5
182
  8
VISIBLE
 10
88.91017167028852
 20
-666.0612861053705
 30
0.0
 11
88.95245496682584
 21
-666.0934345418104
 31
0.0
  0
LINE
  5
183
  8
VISIBLE
 10
88.95245496682584
 20
-666.0934345418104
 30
0.0
 11
88.96222356577056
 21
-666.1012614210027
 31
0.0
  0
LINE
  5
184
  8
VISIBLE
 10
88.96222356577056
 20
-666.1012614210027
 30
0.0
 11
88.96684410789013
 21
-666.1051740954449
 31
0.0
  0
LINE
  5
185
  8
VISIBLE
 10
88.96684410789013
 20
-666.1051740954449
 30
0.0
 11
88.97125404242314
 21
-666.1090937190165
 31
0.0
  0
LINE
  5
186
  8
VISIBLE
 10
88.97125404242314
 20
-666.1090937190165
 30
0.0
 11
88.97542729235607
 21
-666.1130258861422
 31
0.0
  0
LINE
  5
187
  8
VISIBLE
 10
88.97542729235607
 20
-666.1130258861422
 30
0.0
 11
88.97741701153078
 21
-666.1149984217953
 31
0.0
  0
LINE
  5
188
  8
VISIBLE
 10
88.97741701153078
 20
-666.1149984217953
 30
0.0
 11
88.9793377806754
 21
-666.1169761912461
 31
0.0
  0
LINE
  5
189
  8
VISIBLE
 10
88.9793377806754
 20
-666.1169761912461
 30
0.0
 11
88.98118634016323
 21
-666.1189598937975
 31
0.0
  0
LINE
  5
18A
  8
VISIBLE
 10
88.98118634016323
 20
-666.1189598937975
 30
0.0
 11
88.9829594303676
 21
-666.1209502287525
 31
0.0
  0
LINE
  5
18B
  8
VISIBLE
 10
88.9829594303676
 20
-666.1209502287525
 30
0.0
 11
88.9846537916618
 21
-666.1229478954142
 31
0.0
  0
LINE
  5
18C
  8
VISIBLE
 10
88.9846537916618
 20
-666.1229478954142
 30
0.0
 11
88.98626616441915
 21
-666.1249535930857
 31
0.0
  0
LINE
  5
18D
  8
VISIBLE
 10
88.98626616441915
 20
-666.1249535930857
 30
0.0
 11
88.98779328901296
 21
-666.12696802107
 31
0.0
  0
LINE
  5
18E
  8
VISIBLE
 10
88.98779328901296
 20
-666.12696802107
 30
0.0
 11
88.98923190581655
 21
-666.1289918786699
 31
0.0
  0
LINE
  5
18F
  8
VISIBLE
 10
88.98923190581655
 20
-666.1289918786699
 30
0.0
 11
88.99057875520322
 21
-666.1310258651888
 31
0.0
  0
LINE
  5
190
  8
VISIBLE
 10
88.99057875520322
 20
-666.1310258651888
 30
0.0
 11
88.99121674848186
 21
-666.1320468753252
 31
0.0
  0
LINE
  5
191
  8
VISIBLE
 10
88.99121674848186
 20
-666.1320468753252
 30
0.0
 11
88.99183057754627
 21
-666.1330706799297
 31
0.0
  0
LINE
  5
192
  8
VISIBLE
 10
88.99183057754627
 20
-666.1330706799297
 30
0.0
 11
88.99241983494309
 21
-666.1340973664155
 31
0.0
  0
LINE
  5
193
  8
VISIBLE
 10
88.99241983494309
 20
-666.1340973664155
 30
0.0
 11
88.99298411321901
 21
-666.1351270221953
 31
0.0
  0
LINE
  5
194
  8
VISIBLE
 10
88.99298411321901
 20
-666.1351270221953
 30
0.0
 11
88.99352300492069
 21
-666.1361597346822
 31
0.0
  0
LINE
  5
195
  8
VISIBLE
 10
88.99352300492069
 20
-666.1361597346822
 30
0.0
 11
88.99403610259476
 21
-666.1371955912889
 31
0.0
  0
LINE
  5
196
  8
VISIBLE
 10
88.99403610259476
 20
-666.1371955912889
 30
0.0
 11
88.99452299878793
 21
-666.1382346794283
 31
0.0
  0
LINE
  5
197
  8
VISIBLE
 10
88.99452299878793
 20
-666.1382346794283
 30
0.0
 11
88.99498328604685
 21
-666.1392770865134
 31
0.0
  0
LINE
  5
198
  8
VISIBLE
 10
88.99498328604685
 20
-666.1392770865134
 30
0.0
 11
88.99541655691817
 21
-666.140322899957
 31
0.0
  0
LINE
  5
199
  8
VISIBLE
 10
88.99541655691817
 20
-666.140322899957
 30
0.0
 11
88.99582240394855
 21
-666.141372207172
 31
0.0
  0
LINE
  5
19A
  8
VISIBLE
 10
88.99582240394855
 20
-666.141372207172
 30
0.0
 11
88.99633675427282
 21
-666.1428254538891
 31
0.0
  0
LINE
  5
19B
  8
VISIBLE
 10
88.99633675427282
 20
-666.1428254538891
 30
0.0
 11
88.99679881439815
 21
-666.144285480013
 31
0.0
  0
LINE
  5
19C
  8
VISIBLE
 10
88.99679881439815
 20
-666.144285480013
 30
0.0
 11
88.99720924859756
 21
-666.1457522510482
 31
0.0
  0
LINE
  5
19D
  8
VISIBLE
 10
88.99720924859756
 20
-666.1457522510482
 30
0.0
 11
88.99756872114398
 21
-666.147225732499
 31
0.0
  0
LINE
  5
19E
  8
VISIBLE
 10
88.99756872114398
 20
-666.147225732499
 30
0.0
 11
88.99787789631044
 21
-666.1487058898701
 31
0.0
  0
LINE
  5
19F
  8
VISIBLE
 10
88.99787789631044
 20
-666.1487058898701
 30
0.0
 11
88.9981374383699
 21
-666.150192688666
 31
0.0
  0
LINE
  5
1A0
  8
VISIBLE
 10
88.9981374383699
 20
-666.150192688666
 30
0.0
 11
88.99834801159534
 21
-666.151686094391
 31
0.0
  0
LINE
  5
1A1
  8
VISIBLE
 10
88.99834801159534
 20
-666.151686094391
 30
0.0
 11
88.99851028025974
 21
-666.1531860725497
 31
0.0
  0
LINE
  5
1A2
  8
VISIBLE
 10
88.99851028025974
 20
-666.1531860725497
 30
0.0
 11
88.99862490863607
 21
-666.1546925886466
 31
0.0
  0
LINE
  5
1A3
  8
VISIBLE
 10
88.99862490863607
 20
-666.1546925886466
 30
0.0
 11
88.99869256099736
 21
-666.1562056081859
 31
0.0
  0
LINE
  5
1A4
  8
VISIBLE
 10
88.99869256099736
 20
-666.1562056081859
 30
0.0
 11
88.99871390161653
 21
-666.1577250966723
 31
0.0
  0
LINE
  5
1A5
  8
VISIBLE
 10
88.99871390161653
 20
-666.1577250966723
 30
0.0
 11
88.99868959476659
 21
-666.1592510196103
 31
0.0
  0
LINE
  5
1A6
  8
VISIBLE
 10
88.99868959476659
 20
-666.1592510196103
 30
0.0
 11
88.9986203047205
 21
-666.1607833425044
 31
0.0
  0
LINE
  5
1A7
  8
VISIBLE
 10
88.9986203047205
 20
-666.1607833425044
 30
0.0
 11
88.99850669575129
 21
-666.1623220308588
 31
0.0
  0
LINE
  5
1A8
  8
VISIBLE
 10
88.99850669575129
 20
-666.1623220308588
 30
0.0
 11
88.99834943213189
 21
-666.1638670501782
 31
0.0
  0
LINE
  5
1A9
  8
VISIBLE
 10
88.99834943213189
 20
-666.1638670501782
 30
0.0
 11
88.99814917813531
 21
-666.165418365967
 31
0.0
  0
LINE
  5
1AA
  8
VISIBLE
 10
88.99814917813531
 20
-666.165418365967
 30
0.0
 11
88.99790659803452
 21
-666.1669759437295
 31
0.0
  0
LINE
  5
1AB
  8
VISIBLE
 10
88.99790659803452
 20
-666.1669759437295
 30
0.0
 11
88.99762235610248
 21
-666.1685397489707
 31
0.0
  0
LINE
  5
1AC
  8
VISIBLE
 10
88.99762235610248
 20
-666.1685397489707
 30
0.0
 11
88.9972971166122
 21
-666.1701097471946
 31
0.0
  0
LINE
  5
1AD
  8
VISIBLE
 10
88.9972971166122
 20
-666.1701097471946
 30
0.0
 11
88.99693154383667
 21
-666.1716859039057
 31
0.0
  0
LINE
  5
1AE
  8
VISIBLE
 10
88.99693154383667
 20
-666.1716859039057
 30
0.0
 11
88.99652630204885
 21
-666.1732681846086
 31
0.0
  0
LINE
  5
1AF
  8
VISIBLE
 10
88.99652630204885
 20
-666.1732681846086
 30
0.0
 11
88.99608205552173
 21
-666.1748565548078
 31
0.0
  0
LINE
  5
1B0
  8
VISIBLE
 10
88.99608205552173
 20
-666.1748565548078
 30
0.0
 11
88.99559946852828
 21
-666.1764509800075
 31
0.0
  0
LINE
  5
1B1
  8
VISIBLE
 10
88.99559946852828
 20
-666.1764509800075
 30
0.0
 11
88.99507920534148
 21
-666.1780514257125
 31
0.0
  0
LINE
  5
1B2
  8
VISIBLE
 10
88.99507920534148
 20
-666.1780514257125
 30
0.0
 11
88.99452193023433
 21
-666.1796578574272
 31
0.0
  0
LINE
  5
1B3
  8
VISIBLE
 10
88.99452193023433
 20
-666.1796578574272
 30
0.0
 11
88.99392830747979
 21
-666.181270240656
 31
0.0
  0
LINE
  5
1B4
  8
VISIBLE
 10
88.99392830747979
 20
-666.181270240656
 30
0.0
 11
88.99263467612049
 21
-666.1845127236738
 31
0.0
  0
LINE
  5
1B5
  8
VISIBLE
 10
88.99263467612049
 20
-666.1845127236738
 30
0.0
 11
88.99120362544743
 21
-666.1877785988017
 31
0.0
  0
LINE
  5
1B6
  8
VISIBLE
 10
88.99120362544743
 20
-666.1877785988017
 30
0.0
 11
88.98964046964446
 21
-666.1910675900756
 31
0.0
  0
LINE
  5
1B7
  8
VISIBLE
 10
88.98964046964446
 20
-666.1910675900756
 30
0.0
 11
88.98795052289543
 21
-666.1943794215309
 31
0.0
  0
LINE
  5
1B8
  8
VISIBLE
 10
88.98795052289543
 20
-666.1943794215309
 30
0.0
 11
88.98613909938419
 21
-666.1977138172039
 31
0.0
  0
LINE
  5
1B9
  8
VISIBLE
 10
88.98613909938419
 20
-666.1977138172039
 30
0.0
 11
88.98421151329458
 21
-666.20107050113
 31
0.0
  0
LINE
  5
1BA
  8
VISIBLE
 10
88.98421151329458
 20
-666.20107050113
 30
0.0
 11
88.98217307881045
 21
-666.204449197345
 31
0.0
  0
LINE
  5
1BB
  8
VISIBLE
 10
88.98217307881045
 20
-666.204449197345
 30
0.0
 11
88.98002911011564
 21
-666.2078496298848
 31
0.0
  0
LINE
  5
1BC
  8
VISIBLE
 10
88.98002911011564
 20
-666.2078496298848
 30
0.0
 11
88.977784921394
 21
-666.211271522785
 31
0.0
  0
LINE
  5
1BD
  8
VISIBLE
 10
88.977784921394
 20
-666.211271522785
 30
0.0
 11
88.97301714060563
 21
-666.2181785858099
 31
0.0
  0
LINE
  5
1BE
  8
VISIBLE
 10
88.97301714060563
 20
-666.2181785858099
 30
0.0
 11
88.96791224991613
 21
-666.2251681787059
 31
0.0
  0
LINE
  5
1BF
  8
VISIBLE
 10
88.96791224991613
 20
-666.2251681787059
 30
0.0
 11
88.96251276279624
 21
-666.2322380937592
 31
0.0
  0
LINE
  5
1C0
  8
VISIBLE
 10
88.96251276279624
 20
-666.2322380937592
 30
0.0
 11
88.9138130108368
 21
-666.2914240861794
 31
0.0
  0
LINE
  5
1C1
  8
VISIBLE
 10
88.9138130108368
 20
-666.2914240861794
 30
0.0
 11
88.90166805149748
 21
-666.3068692658851
 31
0.0
  0
LINE
  5
1C2
  8
VISIBLE
 10
88.90166805149748
 20
-666.3068692658851
 30
0.0
 11
88.89583389271466
 21
-666.3146770155518
 31
0.0
  0
LINE
  5
1C3
  8
VISIBLE
 10
88.89583389271466
 20
-666.3146770155518
 30
0.0
 11
88.89021529915078
 21
-666.3225385948091
 31
0.0
  0
LINE
  5
1C4
  8
VISIBLE
 10
88.89021529915078
 20
-666.3225385948091
 30
0.0
 11
88.8848547842766
 21
-666.3304517959432
 31
0.0
  0
LINE
  5
1C5
  8
VISIBLE
 10
88.8848547842766
 20
-666.3304517959432
 30
0.0
 11
88.8797948615629
 21
-666.3384144112403
 31
0.0
  0
LINE
  5
1C6
  8
VISIBLE
 10
88.8797948615629
 20
-666.3384144112403
 30
0.0
 11
88.87739090772584
 21
-666.3424135592893
 31
0.0
  0
LINE
  5
1C7
  8
VISIBLE
 10
88.87739090772584
 20
-666.3424135592893
 30
0.0
 11
88.87507804448046
 21
-666.3464242329865
 31
0.0
  0
LINE
  5
1C8
  8
VISIBLE
 10
88.87507804448046
 20
-666.3464242329865
 30
0.0
 11
88.87286158601059
 21
-666.3504461563673
 31
0.0
  0
LINE
  5
1C9
  8
VISIBLE
 10
88.87286158601059
 20
-666.3504461563673
 30
0.0
 11
88.87074684650005
 21
-666.3544790534677
 31
0.0
  0
LINE
  5
1CA
  8
VISIBLE
 10
88.87074684650005
 20
-666.3544790534677
 30
0.0
 11
88.86873914013273
 21
-666.3585226483235
 31
0.0
  0
LINE
  5
1CB
  8
VISIBLE
 10
88.86873914013273
 20
-666.3585226483235
 30
0.0
 11
88.86684378109246
 21
-666.3625766649703
 31
0.0
  0
LINE
  5
1CC
  8
VISIBLE
 10
88.86684378109246
 20
-666.3625766649703
 30
0.0
 11
88.86506608356308
 21
-666.3666408274441
 31
0.0
  0
LINE
  5
1CD
  8
VISIBLE
 10
88.86506608356308
 20
-666.3666408274441
 30
0.0
 11
88.86341136172844
 21
-666.3707148597804
 31
0.0
  0
LINE
  5
1CE
  8
VISIBLE
 10
88.86341136172844
 20
-666.3707148597804
 30
0.0
 11
88.86158681120617
 21
-666.3756337457669
 31
0.0
  0
LINE
  5
1CF
  8
VISIBLE
 10
88.86158681120617
 20
-666.3756337457669
 30
0.0
 11
88.85994217450866
 21
-666.3805656571219
 31
0.0
  0
LINE
  5
1D0
  8
VISIBLE
 10
88.85994217450866
 20
-666.3805656571219
 30
0.0
 11
88.85847131022138
 21
-666.3855097054504
 31
0.0
  0
LINE
  5
1D1
  8
VISIBLE
 10
88.85847131022138
 20
-666.3855097054504
 30
0.0
 11
88.85716807692972
 21
-666.3904650023569
 31
0.0
  0
LINE
  5
1D2
  8
VISIBLE
 10
88.85716807692972
 20
-666.3904650023569
 30
0.0
 11
88.85602633321919
 21
-666.3954306594462
 31
0.0
  0
LINE
  5
1D3
  8
VISIBLE
 10
88.85602633321919
 20
-666.3954306594462
 30
0.0
 11
88.85503993767517
 21
-666.4004057883235
 31
0.0
  0
LINE
  5
1D4
  8
VISIBLE
 10
88.85503993767517
 20
-666.4004057883235
 30
0.0
 11
88.85420274888313
 21
-666.4053895005934
 31
0.0
  0
LINE
  5
1D5
  8
VISIBLE
 10
88.85420274888313
 20
-666.4053895005934
 30
0.0
 11
88.85350862542847
 21
-666.4103809078606
 31
0.0
  0
LINE
  5
1D6
  8
VISIBLE
 10
88.85350862542847
 20
-666.4103809078606
 30
0.0
 11
88.85295142589669
 21
-666.41537912173
 31
0.0
  0
LINE
  5
1D7
  8
VISIBLE
 10
88.85295142589669
 20
-666.41537912173
 30
0.0
 11
88.85252500887322
 21
-666.4203832538062
 31
0.0
  0
LINE
  5
1D8
  8
VISIBLE
 10
88.85252500887322
 20
-666.4203832538062
 30
0.0
 11
88.85222323294344
 21
-666.4253924156942
 31
0.0
  0
LINE
  5
1D9
  8
VISIBLE
 10
88.85222323294344
 20
-666.4253924156942
 30
0.0
 11
88.85203995669286
 21
-666.4304057189988
 31
0.0
  0
LINE
  5
1DA
  8
VISIBLE
 10
88.85203995669286
 20
-666.4304057189988
 30
0.0
 11
88.85196903870688
 21
-666.4354222753249
 31
0.0
  0
LINE
  5
1DB
  8
VISIBLE
 10
88.85196903870688
 20
-666.4354222753249
 30
0.0
 11
88.85200433757096
 21
-666.4404411962771
 31
0.0
  0
LINE
  5
1DC
  8
VISIBLE
 10
88.85200433757096
 20
-666.4404411962771
 30
0.0
 11
88.85213971187054
 21
-666.4454615934601
 31
0.0
  0
LINE
  5
1DD
  8
VISIBLE
 10
88.85213971187054
 20
-666.4454615934601
 30
0.0
 11
88.85236902019102
 21
-666.4504825784791
 31
0.0
  0
LINE
  5
1DE
  8
VISIBLE
 10
88.85236902019102
 20
-666.4504825784791
 30
0.0
 11
88.85308487323658
 21
-666.4605227584436
 31
0.0
  0
LINE
  5
1DF
  8
VISIBLE
 10
88.85308487323658
 20
-666.4605227584436
 30
0.0
 11
88.85410276539115
 21
-666.4705546290088
 31
0.0
  0
LINE
  5
1E0
  8
VISIBLE
 10
88.85410276539115
 20
-666.4705546290088
 30
0.0
 11
88.85537356533825
 21
-666.480571083013
 31
0.0
  0
LINE
  5
1E1
  8
VISIBLE
 10
88.85537356533825
 20
-666.480571083013
 30
0.0
 11
88.85684814176138
 21
-666.490565013295
 31
0.0
  0
LINE
  5
1E2
  8
VISIBLE
 10
88.85684814176138
 20
-666.490565013295
 30
0.0
 11
88.86380158588483
 21
-666.5301733539677
 31
0.0
  0
INSERT
  5
1E3
  8
DIMENSIONS
  2
*X16
 10
0.0
 20
0.0
 30
0.0
  0
INSERT
  5
1E4
  8
DIMENSIONS
  2
*X17
 10
0.0
 20
0.0
 30
0.0
  0
INSERT
  5
1E5
  8
DIMENSIONS
  2
*X18
 10
0.0
 20
0.0
 30
0.0
  0
INSERT
  5
1E6
  8
DIMENSIONS
  2
*X19
 10
0.0
 20
0.0
 30
0.0
  0
INSERT
  5
1E7
  8
DIMENSIONS
  2
*X20
 10
0.0
 20
0.0
 30
0.0
  0
INSERT
  5
1E8
  8
DIMENSIONS
  2
*X21
 10
0.0
 20
0.0
 30
0.0
  0
INSERT
  5
1E9
  8
DIMENSIONS
  2
*X22
 10
0.0
 20
0.0
 30
0.0
  0
INSERT
  5
1EA
  8
DIMENSIONS
  2
*X23
 10
0.0
 20
0.0
 30
0.0
  0
DIMENSION
  5
1EB
  8
DIMENSIONS
  2
*D4
 10
96.81231852088088
 20
-665.8201733539677
 30
0.0
 11
99.81711852088088
 21
-663.2962677252308
 31
0.0
 70
   160
  1
<>
  3
IMPERIAL_1_15
 13
96.72175743062266
 23
-666.0701733539677
 33
0.0
 14
96.86609499792006
 24
-665.8201733539677
 34
0.0
 50
90.0
  0
INSERT
  5
1FC
  8
DIMENSIONS
  2
*X24
 10
0.0
 20
0.0
 30
0.0
  0
INSERT
  5
1FD
  8
DIMENSIONS
  2
*X25
 10
0.0
 20
0.0
 30
0.0
  0
INSERT
  5
1FE
  8
DIMENSIONS
  2
*X26
 10
0.0
 20
0.0
 30
0.0
  0
INSERT
  5
1FF
  8
DIMENSIONS
 62
     1
  2
*X27
 10
0.0
 20
0.0
 30
0.0
  0
INSERT
  5
200
  8
DIMENSIONS
 62
     1
  2
*X28
 10
0.0
 20
0.0
 30
0.0
  0
INSERT
  5
201
  8
DIMENSIONS
  2
*X29
 10
0.0
 20
0.0
 30
0.0
  0
INSERT
  5
202
  8
DIMENSIONS
  2
*X30
 10
0.0
 20
0.0
 30
0.0
  0
INSERT
  5
203
  8
DIMENSIONS
  2
*X31
 10
0.0
 20
0.0
 30
0.0
  0
LINE
  5
204
  8
VISIBLE
 10
177.7848753865001
 20
-796.2553716931757
 30
0.0
 11
180.952328728514
 21
-796.2553716931757
 31
0.0
  0
LINE
  5
205
  8
VISIBLE
 10
180.952328728514
 20
-796.2553716931757
 30
0.0
 11
180.9522202215696
 21
-795.5162223876201
 31
0.0
  0
LINE
  5
206
  8
VISIBLE
 10
223.8993680445028
 20
-805.4935219762274
 30
0.0
 11
221.8332059351278
 21
-805.4947562427205
 31
0.0
  0
LINE
  5
207
  8
VISIBLE
 10
225.5354357528361
 20
-803.7983044198038
 30
0.0
 11
225.5354357528361
 21
-804.2885252314356
 31
0.0
  0
LINE
  5
208
  8
VISIBLE
 10
225.5245850583917
 20
-811.9141491463663
 30
0.0
 11
225.5245850583917
 21
-812.4850855612968
 31
0.0
  0
LINE
  5
209
  8
VISIBLE
 10
224.0214112302667
 20
-803.7980738425468
 30
0.0
 11
224.0213841035305
 21
-803.7991860387274
 31
0.0
  0
LINE
  5
20A
  8
VISIBLE
 10
225.8253934351278
 20
-809.2501137731024
 30
0.0
 11
225.8240913517944
 21
-809.2506834345606
 31
0.0
  0
ARC
  5
20B
  8
VISIBLE
 10
226.6611493813229
 20
-811.9153097453335
 30
0.0
 40
0.0027552285751274
 50
320.7845254454738
 51
175.8873232196629
  0
LINE
  5
20C
  8
VISIBLE
 10
225.8253934351278
 20
-806.6858640986231
 30
0.0
 11
225.8240913517944
 21
-806.6863930699774
 31
0.0
  0
ARC
  5
20D
  8
VISIBLE
 10
225.8294901218897
 20
-806.2562787284687
 30
0.0
 40
0.4301482226976863
 50
269.2808644870248
 51
90.5456872715329
  0
ARC
  5
20E
  8
VISIBLE
 10
225.8294766975076
 20
-808.8205555091384
 30
0.0
 40
0.4301616372672649
 50
269.2826751279691
 51
90.54388209989078
  0
LINE
  5
20F
  8
VISIBLE
 10
225.8253934351278
 20
-809.2501137731024
 30
0.0
 11
225.8240913517944
 21
-809.2506834345606
 31
0.0
  0
LINE
  5
210
  8
VISIBLE
 10
223.6390598847805
 20
-804.1549531828246
 30
0.0
 11
222.34058440735
 21
-804.1549531828246
 31
0.0
  0
LINE
  5
211
  8
VISIBLE
 10
222.34058440735
 20
-804.1549531828246
 30
0.0
 11
222.34058440735
 21
-804.8840655960191
 31
0.0
  0
LINE
  5
212
  8
VISIBLE
 10
223.5154162215861
 20
-809.8118813512274
 30
0.0
 11
223.5154162215861
 21
-808.9414386428941
 31
0.0
  0
LINE
  5
213
  8
VISIBLE
 10
223.5154162215861
 20
-808.9414386428941
 30
0.0
 11
222.1506158743638
 21
-808.9414386428941
 31
0.0
  0
LINE
  5
214
  8
VISIBLE
 10
222.1506158743638
 20
-808.9414386428941
 30
0.0
 11
222.1506158743638
 21
-809.8118813512274
 31
0.0
  0
LINE
  5
215
  8
VISIBLE
 10
226.2537245983222
 20
-803.2087319371649
 30
0.0
 11
226.2527751625583
 21
-803.2152287904635
 31
0.0
  0
ARC
  5
216
  8
VISIBLE
 10
226.2971044479561
 20
-802.8227174411967
 30
0.0
 40
0.3950066389911818
 50
263.5564558299405
 51
41.26246326349374
  0
ARC
  5
217
  8
VISIBLE
 10
226.2839645372648
 20
-802.8803933828996
 30
0.0
 40
0.4442779969282646
 50
45.74063391191661
 51
93.33500489924104
  0
LINE
  5
218
  8
VISIBLE
 10
226.2581191295722
 20
-802.4368677878593
 30
0.0
 11
223.9640924368638
 21
-802.4372301184874
 31
0.0
  0
LINE
  5
219
  8
VISIBLE
 10
223.9640924368638
 20
-802.4372301184874
 30
0.0
 11
223.6627143986694
 21
-802.5431367765746
 31
0.0
  0
ARC
  5
21A
  8
VISIBLE
 10
223.9825055461163
 20
-802.8255648225203
 30
0.0
 40
0.4266520586169723
 50
138.5502149614208
 51
221.9971492014764
  0
LINE
  5
21B
  8
VISIBLE
 10
223.6654270722805
 20
-803.1110349970606
 30
0.0
 11
223.9652046330444
 21
-803.2188502097343
 31
0.0
  0
LINE
  5
21C
  8
VISIBLE
 10
223.9652046330444
 20
-803.2188502097343
 30
0.0
 11
224.0076037215861
 21
-803.218022844283
 31
0.0
  0
LINE
  5
21D
  8
VISIBLE
 10
226.6694960826972
 20
-811.3491941767481
 30
0.0
 11
224.8997478188083
 21
-811.3499537253593
 31
0.0
  0
LINE
  5
21E
  8
VISIBLE
 10
224.8997478188083
 20
-811.3499537253593
 30
0.0
 11
224.7845676972805
 21
-811.3401609736231
 31
0.0
  0
LINE
  5
21F
  8
VISIBLE
 10
224.7845676972805
 20
-811.3401609736231
 30
0.0
 11
224.5785943899888
 21
-811.2467771845606
 31
0.0
  0
ARC
  5
220
  8
VISIBLE
 10
224.8294537300968
 20
-810.9627005585063
 30
0.0
 40
0.3789854060380746
 50
94.58035895467783
 51
228.5532659336378
  0
LINE
  5
221
  8
VISIBLE
 10
224.7991890080444
 20
-810.5849255135538
 30
0.0
 11
224.9250028101278
 21
-810.5797849970606
 31
0.0
  0
LINE
  5
222
  8
VISIBLE
 10
224.9250028101278
 20
-810.5797849970606
 30
0.0
 11
226.6691705618638
 21
-810.5797849970606
 31
0.0
  0
LINE
  5
223
  8
VISIBLE
 10
226.6631484264472
 20
-812.6548175491441
 30
0.0
 11
226.6632840601278
 21
-811.9170517071302
 31
0.0
  0
LINE
  5
224
  8
VISIBLE
 10
223.4068278969333
 20
-810.9503497757066
 30
0.0
 11
223.4066651365167
 21
-810.9513399015746
 31
0.0
  0
LINE
  5
225
  8
VISIBLE
 10
223.4066651365167
 20
-810.9513399015746
 30
0.0
 11
223.4146946504055
 21
-810.9535778573038
 31
0.0
  0
LINE
  5
226
  8
VISIBLE
 10
223.4146946504055
 20
-810.9535778573038
 30
0.0
 11
223.4400310219333
 21
-810.9555174189356
 31
0.0
  0
ARC
  5
227
  8
VISIBLE
 10
223.4515977256856
 20
-810.6327443583998
 30
0.0
 40
0.3229802428065294
 50
267.9476606857023
 51
91.18578800888615
  0
LINE
  5
228
  8
VISIBLE
 10
223.4449138344333
 20
-810.309833282651
 30
0.0
 11
223.4070991642944
 21
-810.309833282651
 31
0.0
  0
LINE
  5
229
  8
VISIBLE
 10
223.4070991642944
 20
-810.309833282651
 30
0.0
 11
223.133309016725
 21
-810.4116941767481
 31
0.0
  0
LINE
  5
22A
  8
VISIBLE
 10
223.133309016725
 20
-810.4116941767481
 30
0.0
 11
223.0379314125583
 21
-810.5152640552205
 31
0.0
  0
LINE
  5
22B
  8
VISIBLE
 10
223.0379314125583
 20
-810.5152640552205
 30
0.0
 11
222.8502957788778
 21
-810.7690211081718
 31
0.0
  0
LINE
  5
22C
  8
VISIBLE
 10
222.8502957788778
 20
-810.7690211081718
 30
0.0
 11
222.8372491963379
 21
-810.7857674967132
 31
0.0
  0
LINE
  5
22D
  8
VISIBLE
 10
222.8372491963379
 20
-810.7857674967132
 30
0.0
 11
222.8237276839884
 21
-810.8020578699856
 31
0.0
  0
LINE
  5
22E
  8
VISIBLE
 10
222.8237276839884
 20
-810.8020578699856
 30
0.0
 11
222.8097369638753
 21
-810.8178876185631
 31
0.0
  0
LINE
  5
22F
  8
VISIBLE
 10
222.8097369638753
 20
-810.8178876185631
 30
0.0
 11
222.7952827580444
 21
-810.8332521330199
 31
0.0
  0
LINE
  5
230
  8
VISIBLE
 10
222.7952827580444
 20
-810.8332521330199
 30
0.0
 11
222.7803707885417
 21
-810.8481468039301
 31
0.0
  0
LINE
  5
231
  8
VISIBLE
 10
222.7803707885417
 20
-810.8481468039301
 30
0.0
 11
222.7650067774129
 21
-810.862567021868
 31
0.0
  0
LINE
  5
232
  8
VISIBLE
 10
222.7650067774129
 20
-810.862567021868
 30
0.0
 11
222.7491964467041
 21
-810.8765081774077
 31
0.0
  0
LINE
  5
233
  8
VISIBLE
 10
222.7491964467041
 20
-810.8765081774077
 30
0.0
 11
222.7329455184611
 21
-810.8899656611231
 31
0.0
  0
LINE
  5
234
  8
VISIBLE
 10
222.7329455184611
 20
-810.8899656611231
 30
0.0
 11
222.7245776554948
 21
-810.896527576203
 31
0.0
  0
LINE
  5
235
  8
VISIBLE
 10
222.7245776554948
 20
-810.896527576203
 30
0.0
 11
222.7160667016446
 21
-810.9029375391749
 31
0.0
  0
LINE
  5
236
  8
VISIBLE
 10
222.7160667016446
 20
-810.9029375391749
 30
0.0
 11
222.7074145245227
 21
-810.9091945963648
 31
0.0
  0
LINE
  5
237
  8
VISIBLE
 10
222.7074145245227
 20
-810.9091945963648
 30
0.0
 11
222.6986229917413
 21
-810.9152977940985
 31
0.0
  0
LINE
  5
238
  8
VISIBLE
 10
222.6986229917413
 20
-810.9152977940985
 30
0.0
 11
222.6896939709126
 21
-810.9212461787013
 31
0.0
  0
LINE
  5
239
  8
VISIBLE
 10
222.6896939709126
 20
-810.9212461787013
 30
0.0
 11
222.6806293296488
 21
-810.9270387964991
 31
0.0
  0
LINE
  5
23A
  8
VISIBLE
 10
222.6806293296488
 20
-810.9270387964991
 30
0.0
 11
222.6714309355622
 21
-810.9326746938177
 31
0.0
  0
LINE
  5
23B
  8
VISIBLE
 10
222.6714309355622
 20
-810.9326746938177
 30
0.0
 11
222.6621006562649
 21
-810.9381529169825
 31
0.0
  0
LINE
  5
23C
  8
VISIBLE
 10
222.6621006562649
 20
-810.9381529169825
 30
0.0
 11
222.6526403593691
 21
-810.9434725123194
 31
0.0
  0
LINE
  5
23D
  8
VISIBLE
 10
222.6526403593691
 20
-810.9434725123194
 30
0.0
 11
222.6430519124871
 21
-810.9486325261541
 31
0.0
  0
LINE
  5
23E
  8
VISIBLE
 10
222.6430519124871
 20
-810.9486325261541
 30
0.0
 11
222.633337183231
 21
-810.9536320048122
 31
0.0
  0
LINE
  5
23F
  8
VISIBLE
 10
222.633337183231
 20
-810.9536320048122
 30
0.0
 11
222.623498039213
 21
-810.9584699946192
 31
0.0
  0
LINE
  5
240
  8
VISIBLE
 10
222.623498039213
 20
-810.9584699946192
 30
0.0
 11
222.6135363480454
 21
-810.9631455419012
 31
0.0
  0
LINE
  5
241
  8
VISIBLE
 10
222.6135363480454
 20
-810.9631455419012
 30
0.0
 11
222.6034539773403
 21
-810.9676576929835
 31
0.0
  0
LINE
  5
242
  8
VISIBLE
 10
222.6034539773403
 20
-810.9676576929835
 30
0.0
 11
222.59325279471
 21
-810.9720054941921
 31
0.0
  0
LINE
  5
243
  8
VISIBLE
 10
222.59325279471
 20
-810.9720054941921
 30
0.0
 11
222.5829346677667
 21
-810.9761879918524
 31
0.0
  0
LINE
  5
244
  8
VISIBLE
 10
222.5829346677667
 20
-810.9761879918524
 30
0.0
 11
222.5723473397565
 21
-810.9801428494402
 31
0.0
  0
LINE
  5
245
  8
VISIBLE
 10
222.5723473397565
 20
-810.9801428494402
 30
0.0
 11
222.5615218713223
 21
-810.9838438508459
 31
0.0
  0
LINE
  5
246
  8
VISIBLE
 10
222.5615218713223
 20
-810.9838438508459
 30
0.0
 11
222.5504604479676
 21
-810.9872908172556
 31
0.0
  0
LINE
  5
247
  8
VISIBLE
 10
222.5504604479676
 20
-810.9872908172556
 30
0.0
 11
222.5391652551961
 21
-810.9904835698553
 31
0.0
  0
LINE
  5
248
  8
VISIBLE
 10
222.5391652551961
 20
-810.9904835698553
 30
0.0
 11
222.5276384785114
 21
-810.9934219298311
 31
0.0
  0
LINE
  5
249
  8
VISIBLE
 10
222.5276384785114
 20
-810.9934219298311
 30
0.0
 11
222.5158823034173
 21
-810.9961057183691
 31
0.0
  0
LINE
  5
24A
  8
VISIBLE
 10
222.5158823034173
 20
-810.9961057183691
 30
0.0
 11
222.5038989154172
 21
-810.9985347566553
 31
0.0
  0
LINE
  5
24B
  8
VISIBLE
 10
222.5038989154172
 20
-810.9985347566553
 30
0.0
 11
222.4916905000149
 21
-811.0007088658758
 31
0.0
  0
LINE
  5
24C
  8
VISIBLE
 10
222.4916905000149
 20
-811.0007088658758
 30
0.0
 11
222.479259242714
 21
-811.0026278672167
 31
0.0
  0
LINE
  5
24D
  8
VISIBLE
 10
222.479259242714
 20
-811.0026278672167
 30
0.0
 11
222.4666073290181
 21
-811.004291581864
 31
0.0
  0
LINE
  5
24E
  8
VISIBLE
 10
222.4666073290181
 20
-811.004291581864
 30
0.0
 11
222.4537369444309
 21
-811.0056998310038
 31
0.0
  0
LINE
  5
24F
  8
VISIBLE
 10
222.4537369444309
 20
-811.0056998310038
 30
0.0
 11
222.4406502744561
 21
-811.0068524358221
 31
0.0
  0
LINE
  5
250
  8
VISIBLE
 10
222.4406502744561
 20
-811.0068524358221
 30
0.0
 11
222.4273495045972
 21
-811.0077492175051
 31
0.0
  0
LINE
  5
251
  8
VISIBLE
 10
222.4273495045972
 20
-811.0077492175051
 30
0.0
 11
222.4138368203579
 21
-811.0083899972387
 31
0.0
  0
LINE
  5
252
  8
VISIBLE
 10
222.4138368203579
 20
-811.0083899972387
 30
0.0
 11
222.4001144072419
 21
-811.0087745962092
 31
0.0
  0
LINE
  5
253
  8
VISIBLE
 10
222.4001144072419
 20
-811.0087745962092
 30
0.0
 11
222.3861844507528
 21
-811.0089028356024
 31
0.0
  0
LINE
  5
254
  8
VISIBLE
 10
222.3861844507528
 20
-811.0089028356024
 30
0.0
 11
222.3739104305048
 21
-811.0087767022399
 31
0.0
  0
LINE
  5
255
  8
VISIBLE
 10
222.3739104305048
 20
-811.0087767022399
 30
0.0
 11
222.3618499140943
 21
-811.0083985803076
 31
0.0
  0
LINE
  5
256
  8
VISIBLE
 10
222.3618499140943
 20
-811.0083985803076
 30
0.0
 11
222.3500053254437
 21
-811.0077688870379
 31
0.0
  0
LINE
  5
257
  8
VISIBLE
 10
222.3500053254437
 20
-811.0077688870379
 30
0.0
 11
222.3383790884752
 21
-811.0068880396632
 31
0.0
  0
LINE
  5
258
  8
VISIBLE
 10
222.3383790884752
 20
-811.0068880396632
 30
0.0
 11
222.3269736271109
 21
-811.0057564554163
 31
0.0
  0
LINE
  5
259
  8
VISIBLE
 10
222.3269736271109
 20
-811.0057564554163
 30
0.0
 11
222.315791365273
 21
-811.0043745515295
 31
0.0
  0
LINE
  5
25A
  8
VISIBLE
 10
222.315791365273
 20
-811.0043745515295
 30
0.0
 11
222.3048347268839
 21
-811.0027427452353
 31
0.0
  0
LINE
  5
25B
  8
VISIBLE
 10
222.3048347268839
 20
-811.0027427452353
 30
0.0
 11
222.2941061358656
 21
-811.0008614537664
 31
0.0
  0
LINE
  5
25C
  8
VISIBLE
 10
222.2941061358656
 20
-811.0008614537664
 30
0.0
 11
222.2836080161405
 21
-810.9987310943552
 31
0.0
  0
LINE
  5
25D
  8
VISIBLE
 10
222.2836080161405
 20
-810.9987310943552
 30
0.0
 11
222.2733427916307
 21
-810.9963520842342
 31
0.0
  0
LINE
  5
25E
  8
VISIBLE
 10
222.2733427916307
 20
-810.9963520842342
 30
0.0
 11
222.2633128862585
 21
-810.993724840636
 31
0.0
  0
LINE
  5
25F
  8
VISIBLE
 10
222.2633128862585
 20
-810.993724840636
 30
0.0
 11
222.2535207239461
 21
-810.9908497807928
 31
0.0
  0
LINE
  5
260
  8
VISIBLE
 10
222.2535207239461
 20
-810.9908497807928
 30
0.0
 11
222.2439687286157
 21
-810.9877273219374
 31
0.0
  0
LINE
  5
261
  8
VISIBLE
 10
222.2439687286157
 20
-810.9877273219374
 30
0.0
 11
222.2346593241896
 21
-810.9843578813025
 31
0.0
  0
LINE
  5
262
  8
VISIBLE
 10
222.2346593241896
 20
-810.9843578813025
 30
0.0
 11
222.2255949345899
 21
-810.9807418761201
 31
0.0
  0
LINE
  5
263
  8
VISIBLE
 10
222.2255949345899
 20
-810.9807418761201
 30
0.0
 11
222.2167779837388
 21
-810.9768797236231
 31
0.0
  0
LINE
  5
264
  8
VISIBLE
 10
222.2167779837388
 20
-810.9768797236231
 30
0.0
 11
222.2081162963647
 21
-810.9727732285075
 31
0.0
  0
LINE
  5
265
  8
VISIBLE
 10
222.2081162963647
 20
-810.9727732285075
 30
0.0
 11
222.1996593708136
 21
-810.9684958667438
 31
0.0
  0
LINE
  5
266
  8
VISIBLE
 10
222.1996593708136
 20
-810.9684958667438
 30
0.0
 11
222.1914085183878
 21
-810.9640487509517
 31
0.0
  0
LINE
  5
267
  8
VISIBLE
 10
222.1914085183878
 20
-810.9640487509517
 30
0.0
 11
222.1833650503893
 21
-810.9594329937513
 31
0.0
  0
LINE
  5
268
  8
VISIBLE
 10
222.1833650503893
 20
-810.9594329937513
 30
0.0
 11
222.1755302781203
 21
-810.9546497077625
 31
0.0
  0
LINE
  5
269
  8
VISIBLE
 10
222.1755302781203
 20
-810.9546497077625
 30
0.0
 11
222.1679055128831
 21
-810.9497000056056
 31
0.0
  0
LINE
  5
26A
  8
VISIBLE
 10
222.1679055128831
 20
-810.9497000056056
 30
0.0
 11
222.1604920659799
 21
-810.9445849999005
 31
0.0
  0
LINE
  5
26B
  8
VISIBLE
 10
222.1604920659799
 20
-810.9445849999005
 30
0.0
 11
222.1532912487128
 21
-810.9393058032673
 31
0.0
  0
LINE
  5
26C
  8
VISIBLE
 10
222.1532912487128
 20
-810.9393058032673
 30
0.0
 11
222.146304372384
 21
-810.933863528326
 31
0.0
  0
LINE
  5
26D
  8
VISIBLE
 10
222.146304372384
 20
-810.933863528326
 30
0.0
 11
222.1395327482957
 21
-810.9282592876966
 31
0.0
  0
LINE
  5
26E
  8
VISIBLE
 10
222.1395327482957
 20
-810.9282592876966
 30
0.0
 11
222.1329776877501
 21
-810.9224941939991
 31
0.0
  0
LINE
  5
26F
  8
VISIBLE
 10
222.1329776877501
 20
-810.9224941939991
 30
0.0
 11
222.1266405020494
 21
-810.9165693598536
 31
0.0
  0
LINE
  5
270
  8
VISIBLE
 10
222.1266405020494
 20
-810.9165693598536
 30
0.0
 11
222.1205225024957
 21
-810.9104858978802
 31
0.0
  0
LINE
  5
271
  8
VISIBLE
 10
222.1205225024957
 20
-810.9104858978802
 30
0.0
 11
222.1146250003913
 21
-810.904244920699
 31
0.0
  0
LINE
  5
272
  8
VISIBLE
 10
222.1146250003913
 20
-810.904244920699
 30
0.0
 11
222.1089493070383
 21
-810.8978475409299
 31
0.0
  0
LINE
  5
273
  8
VISIBLE
 10
222.1089493070383
 20
-810.8978475409299
 30
0.0
 11
222.1034967337388
 21
-810.8912948711927
 31
0.0
  0
LINE
  5
274
  8
VISIBLE
 10
222.1034967337388
 20
-810.8912948711927
 30
0.0
 11
222.0983317594732
 21
-810.8847216411646
 31
0.0
  0
LINE
  5
275
  8
VISIBLE
 10
222.0983317594732
 20
-810.8847216411646
 30
0.0
 11
222.0933353868795
 21
-810.8780290230329
 31
0.0
  0
LINE
  5
276
  8
VISIBLE
 10
222.0933353868795
 20
-810.8780290230329
 30
0.0
 11
222.0885083709497
 21
-810.8712187453325
 31
0.0
  0
LINE
  5
277
  8
VISIBLE
 10
222.0885083709497
 20
-810.8712187453325
 30
0.0
 11
222.0838514666761
 21
-810.864292536598
 31
0.0
  0
LINE
  5
278
  8
VISIBLE
 10
222.0838514666761
 20
-810.864292536598
 30
0.0
 11
222.0793654290509
 21
-810.8572521253641
 31
0.0
  0
LINE
  5
279
  8
VISIBLE
 10
222.0793654290509
 20
-810.8572521253641
 30
0.0
 11
222.0750510130662
 21
-810.8500992401655
 31
0.0
  0
LINE
  5
27A
  8
VISIBLE
 10
222.0750510130662
 20
-810.8500992401655
 30
0.0
 11
222.0709089737143
 21
-810.8428356095369
 31
0.0
  0
LINE
  5
27B
  8
VISIBLE
 10
222.0709089737143
 20
-810.8428356095369
 30
0.0
 11
222.0669400659871
 21
-810.835462962013
 31
0.0
  0
LINE
  5
27C
  8
VISIBLE
 10
222.0669400659871
 20
-810.835462962013
 30
0.0
 11
222.063145044877
 21
-810.8279830261285
 31
0.0
  0
LINE
  5
27D
  8
VISIBLE
 10
222.063145044877
 20
-810.8279830261285
 30
0.0
 11
222.0595246653761
 21
-810.8203975304182
 31
0.0
  0
LINE
  5
27E
  8
VISIBLE
 10
222.0595246653761
 20
-810.8203975304182
 30
0.0
 11
222.0560796824765
 21
-810.8127082034166
 31
0.0
  0
LINE
  5
27F
  8
VISIBLE
 10
222.0560796824765
 20
-810.8127082034166
 30
0.0
 11
222.0528108511705
 21
-810.8049167736585
 31
0.0
  0
LINE
  5
280
  8
VISIBLE
 10
222.0528108511705
 20
-810.8049167736585
 30
0.0
 11
222.0497189264502
 21
-810.7970249696787
 31
0.0
  0
LINE
  5
281
  8
VISIBLE
 10
222.0497189264502
 20
-810.7970249696787
 30
0.0
 11
222.0468046633077
 21
-810.7890345200117
 31
0.0
  0
LINE
  5
282
  8
VISIBLE
 10
222.0468046633077
 20
-810.7890345200117
 30
0.0
 11
222.0440688167353
 21
-810.7809471531923
 31
0.0
  0
LINE
  5
283
  8
VISIBLE
 10
222.0440688167353
 20
-810.7809471531923
 30
0.0
 11
222.041512141725
 21
-810.7727645977552
 31
0.0
  0
LINE
  5
284
  8
VISIBLE
 10
222.041512141725
 20
-810.7727645977552
 30
0.0
 11
222.0391858386668
 21
-810.7646641775186
 31
0.0
  0
LINE
  5
285
  8
VISIBLE
 10
222.0391858386668
 20
-810.7646641775186
 30
0.0
 11
222.0370084677477
 21
-810.7565483991518
 31
0.0
  0
LINE
  5
286
  8
VISIBLE
 10
222.0370084677477
 20
-810.7565483991518
 30
0.0
 11
222.0349801879133
 21
-810.7484187527712
 31
0.0
  0
LINE
  5
287
  8
VISIBLE
 10
222.0349801879133
 20
-810.7484187527712
 30
0.0
 11
222.0331011581095
 21
-810.7402767284925
 31
0.0
  0
LINE
  5
288
  8
VISIBLE
 10
222.0331011581095
 20
-810.7402767284925
 30
0.0
 11
222.031371537282
 21
-810.732123816432
 31
0.0
  0
LINE
  5
289
  8
VISIBLE
 10
222.031371537282
 20
-810.732123816432
 30
0.0
 11
222.0297914843763
 21
-810.723961506706
 31
0.0
  0
LINE
  5
28A
  8
VISIBLE
 10
222.0297914843763
 20
-810.723961506706
 30
0.0
 11
222.0283611583384
 21
-810.7157912894304
 31
0.0
  0
LINE
  5
28B
  8
VISIBLE
 10
222.0283611583384
 20
-810.7157912894304
 30
0.0
 11
222.0270807181139
 21
-810.7076146547213
 31
0.0
  0
LINE
  5
28C
  8
VISIBLE
 10
222.0270807181139
 20
-810.7076146547213
 30
0.0
 11
222.0259503226484
 21
-810.699433092695
 31
0.0
  0
LINE
  5
28D
  8
VISIBLE
 10
222.0259503226484
 20
-810.699433092695
 30
0.0
 11
222.0249701308878
 21
-810.6912480934675
 31
0.0
  0
LINE
  5
28E
  8
VISIBLE
 10
222.0249701308878
 20
-810.6912480934675
 30
0.0
 11
222.0241403017778
 21
-810.6830611471548
 31
0.0
  0
LINE
  5
28F
  8
VISIBLE
 10
222.0241403017778
 20
-810.6830611471548
 30
0.0
 11
222.023460994264
 21
-810.6748737438734
 31
0.0
  0
LINE
  5
290
  8
VISIBLE
 10
222.023460994264
 20
-810.6748737438734
 30
0.0
 11
222.0229323672923
 21
-810.666687373739
 31
0.0
  0
LINE
  5
291
  8
VISIBLE
 10
222.0229323672923
 20
-810.666687373739
 30
0.0
 11
222.0225545798082
 21
-810.6585035268679
 31
0.0
  0
LINE
  5
292
  8
VISIBLE
 10
222.0225545798082
 20
-810.6585035268679
 30
0.0
 11
222.0223277907576
 21
-810.6503236933763
 31
0.0
  0
LINE
  5
293
  8
VISIBLE
 10
222.0223277907576
 20
-810.6503236933763
 30
0.0
 11
222.0222521590861
 21
-810.6421493633802
 31
0.0
  0
LINE
  5
294
  8
VISIBLE
 10
222.0222521590861
 20
-810.6421493633802
 30
0.0
 11
222.0224056476692
 21
-810.6321927650984
 31
0.0
  0
LINE
  5
295
  8
VISIBLE
 10
222.0224056476692
 20
-810.6321927650984
 30
0.0
 11
222.0228646299249
 21
-810.621616755348
 31
0.0
  0
LINE
  5
296
  8
VISIBLE
 10
222.0228646299249
 20
-810.621616755348
 30
0.0
 11
222.0236268806132
 21
-810.6104313477094
 31
0.0
  0
LINE
  5
297
  8
VISIBLE
 10
222.0236268806132
 20
-810.6104313477094
 30
0.0
 11
222.0246901744941
 21
-810.598646555763
 31
0.0
  0
LINE
  5
298
  8
VISIBLE
 10
222.0246901744941
 20
-810.598646555763
 30
0.0
 11
222.0260522863275
 21
-810.5862723930891
 31
0.0
  0
LINE
  5
299
  8
VISIBLE
 10
222.0260522863275
 20
-810.5862723930891
 30
0.0
 11
222.0277109908732
 21
-810.5733188732679
 31
0.0
  0
LINE
  5
29A
  8
VISIBLE
 10
222.0277109908732
 20
-810.5733188732679
 30
0.0
 11
222.0319092771417
 21
-810.5457138165052
 31
0.0
  0
LINE
  5
29B
  8
VISIBLE
 10
222.0319092771417
 20
-810.5457138165052
 30
0.0
 11
222.0332350433872
 21
-810.5382070618421
 31
0.0
  0
LINE
  5
29C
  8
VISIBLE
 10
222.0332350433872
 20
-810.5382070618421
 30
0.0
 11
222.0347906451429
 21
-810.5307030887288
 31
0.0
  0
LINE
  5
29D
  8
VISIBLE
 10
222.0347906451429
 20
-810.5307030887288
 30
0.0
 11
222.0365751287347
 21
-810.5232043608244
 31
0.0
  0
LINE
  5
29E
  8
VISIBLE
 10
222.0365751287347
 20
-810.5232043608244
 30
0.0
 11
222.038587540488
 21
-810.5157133417873
 31
0.0
  0
LINE
  5
29F
  8
VISIBLE
 10
222.038587540488
 20
-810.5157133417873
 30
0.0
 11
222.0408269267287
 21
-810.5082324952763
 31
0.0
  0
LINE
  5
2A0
  8
VISIBLE
 10
222.0408269267287
 20
-810.5082324952763
 30
0.0
 11
222.0432923337823
 21
-810.50076428495
 31
0.0
  0
LINE
  5
2A1
  8
VISIBLE
 10
222.0432923337823
 20
-810.50076428495
 30
0.0
 11
222.0459828079746
 21
-810.493311174467
 31
0.0
  0
LINE
  5
2A2
  8
VISIBLE
 10
222.0459828079746
 20
-810.493311174467
 30
0.0
 11
222.0488973956312
 21
-810.485875627486
 31
0.0
  0
LINE
  5
2A3
  8
VISIBLE
 10
222.0488973956312
 20
-810.485875627486
 30
0.0
 11
222.0520351430779
 21
-810.4784601076658
 31
0.0
  0
LINE
  5
2A4
  8
VISIBLE
 10
222.0520351430779
 20
-810.4784601076658
 30
0.0
 11
222.0553950966403
 21
-810.4710670786646
 31
0.0
  0
LINE
  5
2A5
  8
VISIBLE
 10
222.0553950966403
 20
-810.4710670786646
 30
0.0
 11
222.0589763026441
 21
-810.4636990041416
 31
0.0
  0
LINE
  5
2A6
  8
VISIBLE
 10
222.0589763026441
 20
-810.4636990041416
 30
0.0
 11
222.0627778074151
 21
-810.4563583477551
 31
0.0
  0
LINE
  5
2A7
  8
VISIBLE
 10
222.0627778074151
 20
-810.4563583477551
 30
0.0
 11
222.0667986572788
 21
-810.4490475731639
 31
0.0
  0
LINE
  5
2A8
  8
VISIBLE
 10
222.0667986572788
 20
-810.4490475731639
 30
0.0
 11
222.0710378985609
 21
-810.4417691440265
 31
0.0
  0
LINE
  5
2A9
  8
VISIBLE
 10
222.0710378985609
 20
-810.4417691440265
 30
0.0
 11
222.0754945775872
 21
-810.4345255240016
 31
0.0
  0
LINE
  5
2AA
  8
VISIBLE
 10
222.0754945775872
 20
-810.4345255240016
 30
0.0
 11
222.0801677406833
 21
-810.4273191767481
 31
0.0
  0
LINE
  5
2AB
  8
VISIBLE
 10
222.0801677406833
 20
-810.4273191767481
 30
0.0
 11
222.0826233460842
 21
-810.4237288897284
 31
0.0
  0
LINE
  5
2AC
  8
VISIBLE
 10
222.0826233460842
 20
-810.4237288897284
 30
0.0
 11
222.0851479339274
 21
-810.4201729672698
 31
0.0
  0
LINE
  5
2AD
  8
VISIBLE
 10
222.0851479339274
 20
-810.4201729672698
 30
0.0
 11
222.0904034211575
 21
-810.4131646630711
 31
0.0
  0
LINE
  5
2AE
  8
VISIBLE
 10
222.0904034211575
 20
-810.4131646630711
 30
0.0
 11
222.0959329308078
 21
-810.4062951582221
 31
0.0
  0
LINE
  5
2AF
  8
VISIBLE
 10
222.0959329308078
 20
-810.4062951582221
 30
0.0
 11
222.1017351913127
 21
-810.3995653467921
 31
0.0
  0
LINE
  5
2B0
  8
VISIBLE
 10
222.1017351913127
 20
-810.3995653467921
 30
0.0
 11
222.1078089311062
 21
-810.392976122851
 31
0.0
  0
LINE
  5
2B1
  8
VISIBLE
 10
222.1078089311062
 20
-810.392976122851
 30
0.0
 11
222.1141528786228
 21
-810.3865283804682
 31
0.0
  0
LINE
  5
2B2
  8
VISIBLE
 10
222.1141528786228
 20
-810.3865283804682
 30
0.0
 11
222.1207657622965
 21
-810.3802230137137
 31
0.0
  0
LINE
  5
2B3
  8
VISIBLE
 10
222.1207657622965
 20
-810.3802230137137
 30
0.0
 11
222.1276463105618
 21
-810.3740609166571
 31
0.0
  0
LINE
  5
2B4
  8
VISIBLE
 10
222.1276463105618
 20
-810.3740609166571
 30
0.0
 11
222.1347932518528
 21
-810.3680429833679
 31
0.0
  0
LINE
  5
2B5
  8
VISIBLE
 10
222.1347932518528
 20
-810.3680429833679
 30
0.0
 11
222.1422053146037
 21
-810.3621701079159
 31
0.0
  0
LINE
  5
2B6
  8
VISIBLE
 10
222.1422053146037
 20
-810.3621701079159
 30
0.0
 11
222.1498812272488
 21
-810.3564431843706
 31
0.0
  0
LINE
  5
2B7
  8
VISIBLE
 10
222.1498812272488
 20
-810.3564431843706
 30
0.0
 11
222.1578197182224
 21
-810.3508631068021
 31
0.0
  0
LINE
  5
2B8
  8
VISIBLE
 10
222.1578197182224
 20
-810.3508631068021
 30
0.0
 11
222.1660195159587
 21
-810.3454307692795
 31
0.0
  0
LINE
  5
2B9
  8
VISIBLE
 10
222.1660195159587
 20
-810.3454307692795
 30
0.0
 11
222.1744793488919
 21
-810.3401470658728
 31
0.0
  0
LINE
  5
2BA
  8
VISIBLE
 10
222.1744793488919
 20
-810.3401470658728
 30
0.0
 11
222.1831979454563
 21
-810.3350128906516
 31
0.0
  0
LINE
  5
2BB
  8
VISIBLE
 10
222.1831979454563
 20
-810.3350128906516
 30
0.0
 11
222.1921740340861
 21
-810.3300291376856
 31
0.0
  0
LINE
  5
2BC
  8
VISIBLE
 10
222.1921740340861
 20
-810.3300291376856
 30
0.0
 11
222.1967016144931
 21
-810.3276060362705
 31
0.0
  0
LINE
  5
2BD
  8
VISIBLE
 10
222.1967016144931
 20
-810.3276060362705
 30
0.0
 11
222.2013227245217
 21
-810.3252601799913
 31
0.0
  0
LINE
  5
2BE
  8
VISIBLE
 10
222.2013227245217
 20
-810.3252601799913
 30
0.0
 11
222.206037910548
 21
-810.3229914868919
 31
0.0
  0
LINE
  5
2BF
  8
VISIBLE
 10
222.206037910548
 20
-810.3229914868919
 30
0.0
 11
222.210847718948
 21
-810.3207998750158
 31
0.0
  0
LINE
  5
2C0
  8
VISIBLE
 10
222.210847718948
 20
-810.3207998750158
 30
0.0
 11
222.2157526960974
 21
-810.3186852624067
 31
0.0
  0
LINE
  5
2C1
  8
VISIBLE
 10
222.2157526960974
 20
-810.3186852624067
 30
0.0
 11
222.2207533883723
 21
-810.316647567108
 31
0.0
  0
LINE
  5
2C2
  8
VISIBLE
 10
222.2207533883723
 20
-810.316647567108
 30
0.0
 11
222.2258503421484
 21
-810.3146867071637
 31
0.0
  0
LINE
  5
2C3
  8
VISIBLE
 10
222.2258503421484
 20
-810.3146867071637
 30
0.0
 11
222.2310441038018
 21
-810.312802600617
 31
0.0
  0
LINE
  5
2C4
  8
VISIBLE
 10
222.2310441038018
 20
-810.312802600617
 30
0.0
 11
222.2363352197083
 21
-810.3109951655117
 31
0.0
  0
LINE
  5
2C5
  8
VISIBLE
 10
222.2363352197083
 20
-810.3109951655117
 30
0.0
 11
222.2417242362439
 21
-810.3092643198916
 31
0.0
  0
LINE
  5
2C6
  8
VISIBLE
 10
222.2417242362439
 20
-810.3092643198916
 30
0.0
 11
222.2472116997843
 21
-810.3076099817999
 31
0.0
  0
LINE
  5
2C7
  8
VISIBLE
 10
222.2472116997843
 20
-810.3076099817999
 30
0.0
 11
222.2527981567057
 21
-810.3060320692806
 31
0.0
  0
LINE
  5
2C8
  8
VISIBLE
 10
222.2527981567057
 20
-810.3060320692806
 30
0.0
 11
222.2642702361946
 21
-810.303105193133
 31
0.0
  0
LINE
  5
2C9
  8
VISIBLE
 10
222.2642702361946
 20
-810.303105193133
 30
0.0
 11
222.276144845718
 21
-810.3004830357977
 31
0.0
  0
LINE
  5
2CA
  8
VISIBLE
 10
222.276144845718
 20
-810.3004830357977
 30
0.0
 11
222.2884263562831
 21
-810.2981649416238
 31
0.0
  0
LINE
  5
2CB
  8
VISIBLE
 10
222.2884263562831
 20
-810.2981649416238
 30
0.0
 11
222.301119138897
 21
-810.2961502549597
 31
0.0
  0
LINE
  5
2CC
  8
VISIBLE
 10
222.301119138897
 20
-810.2961502549597
 30
0.0
 11
222.3142275645673
 21
-810.2944383201548
 31
0.0
  0
LINE
  5
2CD
  8
VISIBLE
 10
222.3142275645673
 20
-810.2944383201548
 30
0.0
 11
222.327756004301
 21
-810.2930284815578
 31
0.0
  0
LINE
  5
2CE
  8
VISIBLE
 10
222.327756004301
 20
-810.2930284815578
 30
0.0
 11
222.3417088291055
 21
-810.2919200835178
 31
0.0
  0
LINE
  5
2CF
  8
VISIBLE
 10
222.3417088291055
 20
-810.2919200835178
 30
0.0
 11
222.3560904099881
 21
-810.2911124703833
 31
0.0
  0
LINE
  5
2D0
  8
VISIBLE
 10
222.3560904099881
 20
-810.2911124703833
 30
0.0
 11
222.3709051179561
 21
-810.2906049865035
 31
0.0
  0
LINE
  5
2D1
  8
VISIBLE
 10
222.3709051179561
 20
-810.2906049865035
 30
0.0
 11
222.3861573240167
 21
-810.2903969762274
 31
0.0
  0
LINE
  5
2D2
  8
VISIBLE
 10
222.3861573240167
 20
-810.2903969762274
 30
0.0
 11
222.3894667858222
 21
-810.289813751401
 31
0.0
  0
LINE
  5
2D3
  8
VISIBLE
 10
226.6584012476278
 20
-811.9151121454981
 30
0.0
 11
223.4909479056138
 21
-811.9151121454981
 31
0.0
  0
LINE
  5
2D4
  8
VISIBLE
 10
223.4909479056138
 20
-811.9151121454981
 30
0.0
 11
223.4910564125583
 21
-812.6542614510538
 31
0.0
  0
LINE
  5
2D5
  8
VISIBLE
 10
224.0245850583917
 20
-803.7978297019218
 30
0.0
 11
224.0214112302667
 21
-803.7980738425468
 31
0.0
  0
LINE
  5
2D6
  8
VISIBLE
 10
222.7381538517944
 20
-807.5260740595606
 30
0.0
 11
222.7381538517944
 21
-808.0386337383802
 31
0.0
  0
ARC
  5
2D7
  8
VISIBLE
 10
226.6611493813229
 20
-811.9153097453335
 30
0.0
 40
0.0027552285751274
 50
320.7845254454738
 51
175.8873232196629
  0
LINE
  5
2D8
  8
VISIBLE
 10
221.8398248587388
 20
-808.4142983434149
 30
0.0
 11
222.7277100583917
 21
-808.0282170717135
 31
0.0
  0
LINE
  5
2D9
  8
VISIBLE
 10
222.7277100583917
 20
-808.0282170717135
 30
0.0
 11
222.7704617945028
 21
-808.097702206262
 31
0.0
  0
LINE
  5
2DA
  8
VISIBLE
 10
222.7704617945028
 20
-808.097702206262
 30
0.0
 11
222.9141792424194
 21
-808.2380016854288
 31
0.0
  0
ARC
  5
2DB
  8
VISIBLE
 10
223.2981604836501
 20
-807.7048117917251
 30
0.0
 40
0.657063966722288
 50
234.2401317995349
 51
335.8146411196042
  0
LINE
  5
2DC
  8
VISIBLE
 10
223.8975505531833
 20
-807.9740042895955
 30
0.0
 11
223.8975505531833
 21
-807.5235919632066
 31
0.0
  0
LINE
  5
2DD
  8
VISIBLE
 10
223.8975505531833
 20
-807.5235919632066
 30
0.0
 11
221.8362712563083
 21
-807.5235919632066
 31
0.0
  0
LINE
  5
2DE
  8
VISIBLE
 10
222.8609023326972
 20
-809.6447670934149
 30
0.0
 11
222.8609023326972
 21
-808.9414386428941
 31
0.0
  0
LINE
  5
2DF
  8
VISIBLE
 10
224.0245850583917
 20
-803.7978297019218
 30
0.0
 11
224.0214112302667
 21
-803.7980738425468
 31
0.0
  0
LINE
  5
2E0
  8
VISIBLE
 10
224.3001655705444
 20
-804.8060491029635
 30
0.0
 11
225.5249919594333
 21
-804.2885252314356
 31
0.0
  0
LINE
  5
2E1
  8
VISIBLE
 10
225.5249919594333
 20
-804.2885252314356
 30
0.0
 11
225.5672825410305
 21
-804.3573321975816
 31
0.0
  0
LINE
  5
2E2
  8
VISIBLE
 10
225.5672825410305
 20
-804.3573321975816
 30
0.0
 11
225.7066597111694
 21
-804.4928844979288
 31
0.0
  0
ARC
  5
2E3
  8
VISIBLE
 10
226.0814819676456
 20
-803.9750337372963
 30
0.0
 40
0.639266090323572
 50
234.1028443658835
 51
335.8630430118594
  0
LINE
  5
2E4
  8
VISIBLE
 10
226.6648574108222
 20
-804.2364418981024
 30
0.0
 11
226.6648574108222
 21
-803.7989825882066
 31
0.0
  0
LINE
  5
2E5
  8
VISIBLE
 10
226.6648574108222
 20
-803.7989825882066
 30
0.0
 11
224.0245850583917
 21
-803.7978297019218
 31
0.0
  0
LINE
  5
2E6
  8
VISIBLE
 10
224.0214112302667
 20
-803.7980738425468
 30
0.0
 11
224.0213841035305
 21
-803.7991860387274
 31
0.0
  0
LINE
  5
2E7
  8
VISIBLE
 10
224.5868951712388
 20
-808.7907089336927
 30
0.0
 11
224.5873190203852
 21
-808.7596111661285
 31
0.0
  0
LINE
  5
2E8
  8
VISIBLE
 10
224.5873190203852
 20
-808.7596111661285
 30
0.0
 11
224.5885837352281
 21
-808.7287047027762
 31
0.0
  0
LINE
  5
2E9
  8
VISIBLE
 10
224.5885837352281
 20
-808.7287047027762
 30
0.0
 11
224.590679066873
 21
-808.6979990934174
 31
0.0
  0
LINE
  5
2EA
  8
VISIBLE
 10
224.590679066873
 20
-808.6979990934174
 30
0.0
 11
224.5935947664253
 21
-808.6675038878337
 31
0.0
  0
LINE
  5
2EB
  8
VISIBLE
 10
224.5935947664253
 20
-808.6675038878337
 30
0.0
 11
224.5973205849906
 21
-808.6372286358069
 31
0.0
  0
LINE
  5
2EC
  8
VISIBLE
 10
224.5973205849906
 20
-808.6372286358069
 30
0.0
 11
224.6018462736744
 21
-808.6071828871186
 31
0.0
  0
LINE
  5
2ED
  8
VISIBLE
 10
224.6018462736744
 20
-808.6071828871186
 30
0.0
 11
224.6071615835822
 21
-808.5773761915505
 31
0.0
  0
LINE
  5
2EE
  8
VISIBLE
 10
224.6071615835822
 20
-808.5773761915505
 30
0.0
 11
224.6132562658196
 21
-808.5478180988844
 31
0.0
  0
LINE
  5
2EF
  8
VISIBLE
 10
224.6132562658196
 20
-808.5478180988844
 30
0.0
 11
224.620120071492
 21
-808.5185181589017
 31
0.0
  0
LINE
  5
2F0
  8
VISIBLE
 10
224.620120071492
 20
-808.5185181589017
 30
0.0
 11
224.6277427517048
 21
-808.4894859213844
 31
0.0
  0
LINE
  5
2F1
  8
VISIBLE
 10
224.6277427517048
 20
-808.4894859213844
 30
0.0
 11
224.6361140575638
 21
-808.4607309361139
 31
0.0
  0
LINE
  5
2F2
  8
VISIBLE
 10
224.6361140575638
 20
-808.4607309361139
 30
0.0
 11
224.6452237401742
 21
-808.4322627528722
 31
0.0
  0
LINE
  5
2F3
  8
VISIBLE
 10
224.6452237401742
 20
-808.4322627528722
 30
0.0
 11
224.6550615506417
 21
-808.4040909214407
 31
0.0
  0
LINE
  5
2F4
  8
VISIBLE
 10
224.6550615506417
 20
-808.4040909214407
 30
0.0
 11
224.6656172400718
 21
-808.3762249916012
 31
0.0
  0
LINE
  5
2F5
  8
VISIBLE
 10
224.6656172400718
 20
-808.3762249916012
 30
0.0
 11
224.67688055957
 21
-808.3486745131354
 31
0.0
  0
LINE
  5
2F6
  8
VISIBLE
 10
224.67688055957
 20
-808.3486745131354
 30
0.0
 11
224.6888412602416
 21
-808.3214490358248
 31
0.0
  0
LINE
  5
2F7
  8
VISIBLE
 10
224.6888412602416
 20
-808.3214490358248
 30
0.0
 11
224.7014890931924
 21
-808.2945581094514
 31
0.0
  0
LINE
  5
2F8
  8
VISIBLE
 10
224.7014890931924
 20
-808.2945581094514
 30
0.0
 11
224.7148138095278
 21
-808.2680112837966
 31
0.0
  0
LINE
  5
2F9
  8
VISIBLE
 10
224.7148138095278
 20
-808.2680112837966
 30
0.0
 11
224.7288051603533
 21
-808.2418181086421
 31
0.0
  0
LINE
  5
2FA
  8
VISIBLE
 10
224.7288051603533
 20
-808.2418181086421
 30
0.0
 11
224.7434528967743
 21
-808.2159881337698
 31
0.0
  0
LINE
  5
2FB
  8
VISIBLE
 10
224.7434528967743
 20
-808.2159881337698
 30
0.0
 11
224.7587467698965
 21
-808.1905309089611
 31
0.0
  0
LINE
  5
2FC
  8
VISIBLE
 10
224.7587467698965
 20
-808.1905309089611
 30
0.0
 11
224.7746765308253
 21
-808.1654559839978
 31
0.0
  0
LINE
  5
2FD
  8
VISIBLE
 10
224.7746765308253
 20
-808.1654559839978
 30
0.0
 11
224.7912319306662
 21
-808.1407729086618
 31
0.0
  0
LINE
  5
2FE
  8
VISIBLE
 10
224.7912319306662
 20
-808.1407729086618
 30
0.0
 11
224.8084027205247
 21
-808.1164912327345
 31
0.0
  0
LINE
  5
2FF
  8
VISIBLE
 10
224.8084027205247
 20
-808.1164912327345
 30
0.0
 11
224.8261786515064
 21
-808.0926205059975
 31
0.0
  0
LINE
  5
300
  8
VISIBLE
 10
224.8261786515064
 20
-808.0926205059975
 30
0.0
 11
224.8445494747167
 21
-808.0691702782328
 31
0.0
  0
LINE
  5
301
  8
VISIBLE
 10
224.8445494747167
 20
-808.0691702782328
 30
0.0
 11
224.8635049412612
 21
-808.0461500992219
 31
0.0
  0
LINE
  5
302
  8
VISIBLE
 10
224.8635049412612
 20
-808.0461500992219
 30
0.0
 11
224.8830348022453
 21
-808.0235695187465
 31
0.0
  0
LINE
  5
303
  8
VISIBLE
 10
224.8830348022453
 20
-808.0235695187465
 30
0.0
 11
224.9031288087746
 21
-808.0014380865882
 31
0.0
  0
LINE
  5
304
  8
VISIBLE
 10
224.9031288087746
 20
-808.0014380865882
 30
0.0
 11
224.9237767119546
 21
-807.9797653525288
 31
0.0
  0
LINE
  5
305
  8
VISIBLE
 10
224.9237767119546
 20
-807.9797653525288
 30
0.0
 11
224.9449682628907
 21
-807.9585608663499
 31
0.0
  0
LINE
  5
306
  8
VISIBLE
 10
224.9449682628907
 20
-807.9585608663499
 30
0.0
 11
224.9666932126885
 21
-807.9378341778333
 31
0.0
  0
LINE
  5
307
  8
VISIBLE
 10
224.9666932126885
 20
-807.9378341778333
 30
0.0
 11
224.9889413124535
 21
-807.9175948367606
 31
0.0
  0
LINE
  5
308
  8
VISIBLE
 10
224.9889413124535
 20
-807.9175948367606
 30
0.0
 11
225.0117023132912
 21
-807.8978523929134
 31
0.0
  0
LINE
  5
309
  8
VISIBLE
 10
225.0117023132912
 20
-807.8978523929134
 30
0.0
 11
225.0349659663071
 21
-807.8786163960735
 31
0.0
  0
LINE
  5
30A
  8
VISIBLE
 10
225.0349659663071
 20
-807.8786163960735
 30
0.0
 11
225.0587220226068
 21
-807.8598963960226
 31
0.0
  0
LINE
  5
30B
  8
VISIBLE
 10
225.0587220226068
 20
-807.8598963960226
 30
0.0
 11
225.0829602332956
 21
-807.8417019425422
 31
0.0
  0
LINE
  5
30C
  8
VISIBLE
 10
225.0829602332956
 20
-807.8417019425422
 30
0.0
 11
225.1076703494793
 21
-807.8240425854142
 31
0.0
  0
LINE
  5
30D
  8
VISIBLE
 10
225.1076703494793
 20
-807.8240425854142
 30
0.0
 11
225.1328421222631
 21
-807.8069278744201
 31
0.0
  0
LINE
  5
30E
  8
VISIBLE
 10
225.1328421222631
 20
-807.8069278744201
 30
0.0
 11
225.1584653027527
 21
-807.7903673593416
 31
0.0
  0
LINE
  5
30F
  8
VISIBLE
 10
225.1584653027527
 20
-807.7903673593416
 30
0.0
 11
225.1845296420535
 21
-807.7743705899607
 31
0.0
  0
LINE
  5
310
  8
VISIBLE
 10
225.1845296420535
 20
-807.7743705899607
 30
0.0
 11
225.2110248912711
 21
-807.7589471160586
 31
0.0
  0
LINE
  5
311
  8
VISIBLE
 10
225.2110248912711
 20
-807.7589471160586
 30
0.0
 11
225.2379408015109
 21
-807.7441064874172
 31
0.0
  0
LINE
  5
312
  8
VISIBLE
 10
225.2379408015109
 20
-807.7441064874172
 30
0.0
 11
225.2652671238786
 21
-807.7298582538183
 31
0.0
  0
LINE
  5
313
  8
VISIBLE
 10
225.2652671238786
 20
-807.7298582538183
 30
0.0
 11
225.2929936094795
 21
-807.7162119650433
 31
0.0
  0
LINE
  5
314
  8
VISIBLE
 10
225.2929936094795
 20
-807.7162119650433
 30
0.0
 11
225.3211100094192
 21
-807.7031771708741
 31
0.0
  0
LINE
  5
315
  8
VISIBLE
 10
225.3211100094192
 20
-807.7031771708741
 30
0.0
 11
225.3496060748031
 21
-807.6907634210924
 31
0.0
  0
LINE
  5
316
  8
VISIBLE
 10
225.3496060748031
 20
-807.6907634210924
 30
0.0
 11
225.3784715567369
 21
-807.6789802654798
 31
0.0
  0
LINE
  5
317
  8
VISIBLE
 10
225.3784715567369
 20
-807.6789802654798
 30
0.0
 11
225.407696206326
 21
-807.6678372538179
 31
0.0
  0
LINE
  5
318
  8
VISIBLE
 10
225.407696206326
 20
-807.6678372538179
 30
0.0
 11
225.4372697746759
 21
-807.6573439358885
 31
0.0
  0
LINE
  5
319
  8
VISIBLE
 10
225.4372697746759
 20
-807.6573439358885
 30
0.0
 11
225.4671820128922
 21
-807.6475098614733
 31
0.0
  0
LINE
  5
31A
  8
VISIBLE
 10
225.4671820128922
 20
-807.6475098614733
 30
0.0
 11
225.4974226720802
 21
-807.6383445803538
 31
0.0
  0
LINE
  5
31B
  8
VISIBLE
 10
225.4974226720802
 20
-807.6383445803538
 30
0.0
 11
225.5279815033456
 21
-807.6298576423119
 31
0.0
  0
LINE
  5
31C
  8
VISIBLE
 10
225.5279815033456
 20
-807.6298576423119
 30
0.0
 11
225.5588482577939
 21
-807.6220585971291
 31
0.0
  0
LINE
  5
31D
  8
VISIBLE
 10
225.5588482577939
 20
-807.6220585971291
 30
0.0
 11
225.5900126865305
 21
-807.6149569945871
 31
0.0
  0
LINE
  5
31E
  8
VISIBLE
 10
225.5900126865305
 20
-807.6149569945871
 30
0.0
 11
225.6214645406609
 21
-807.6085623844677
 31
0.0
  0
LINE
  5
31F
  8
VISIBLE
 10
225.6214645406609
 20
-807.6085623844677
 30
0.0
 11
225.6531935712907
 21
-807.6028843165525
 31
0.0
  0
LINE
  5
320
  8
VISIBLE
 10
225.6531935712907
 20
-807.6028843165525
 30
0.0
 11
225.6851895295254
 21
-807.5979323406234
 31
0.0
  0
LINE
  5
321
  8
VISIBLE
 10
225.6851895295254
 20
-807.5979323406234
 30
0.0
 11
225.7174421664705
 21
-807.5937160064616
 31
0.0
  0
LINE
  5
322
  8
VISIBLE
 10
225.7174421664705
 20
-807.5937160064616
 30
0.0
 11
225.7499412332315
 21
-807.5902448638493
 31
0.0
  0
LINE
  5
323
  8
VISIBLE
 10
225.7499412332315
 20
-807.5902448638493
 30
0.0
 11
225.7826764809139
 21
-807.5875284625679
 31
0.0
  0
LINE
  5
324
  8
VISIBLE
 10
225.7826764809139
 20
-807.5875284625679
 30
0.0
 11
225.8156376606231
 21
-807.5855763523991
 31
0.0
  0
LINE
  5
325
  8
VISIBLE
 10
225.8156376606231
 20
-807.5855763523991
 30
0.0
 11
225.8488145234648
 21
-807.5843980831245
 31
0.0
  0
LINE
  5
326
  8
VISIBLE
 10
225.8488145234648
 20
-807.5843980831245
 30
0.0
 11
225.8821968205444
 21
-807.584003204526
 31
0.0
  0
LINE
  5
327
  8
VISIBLE
 10
225.8821968205444
 20
-807.584003204526
 30
0.0
 11
225.9156767646229
 21
-807.5843980831245
 31
0.0
  0
LINE
  5
328
  8
VISIBLE
 10
225.9156767646229
 20
-807.5843980831245
 30
0.0
 11
225.9489507262249
 21
-807.5855763523991
 31
0.0
  0
LINE
  5
329
  8
VISIBLE
 10
225.9489507262249
 20
-807.5855763523991
 30
0.0
 11
225.9820084247909
 21
-807.5875284625679
 31
0.0
  0
LINE
  5
32A
  8
VISIBLE
 10
225.9820084247909
 20
-807.5875284625679
 30
0.0
 11
226.0148395797616
 21
-807.5902448638493
 31
0.0
  0
LINE
  5
32B
  8
VISIBLE
 10
226.0148395797616
 20
-807.5902448638493
 30
0.0
 11
226.0474339105774
 21
-807.5937160064616
 31
0.0
  0
LINE
  5
32C
  8
VISIBLE
 10
226.0474339105774
 20
-807.5937160064616
 30
0.0
 11
226.0797811366789
 21
-807.5979323406234
 31
0.0
  0
LINE
  5
32D
  8
VISIBLE
 10
226.0797811366789
 20
-807.5979323406234
 30
0.0
 11
226.1118709775066
 21
-807.6028843165525
 31
0.0
  0
LINE
  5
32E
  8
VISIBLE
 10
226.1118709775066
 20
-807.6028843165525
 30
0.0
 11
226.1436931525011
 21
-807.6085623844677
 31
0.0
  0
LINE
  5
32F
  8
VISIBLE
 10
226.1436931525011
 20
-807.6085623844677
 30
0.0
 11
226.1752373811029
 21
-807.6149569945871
 31
0.0
  0
LINE
  5
330
  8
VISIBLE
 10
226.1752373811029
 20
-807.6149569945871
 30
0.0
 11
226.2064933827525
 21
-807.6220585971291
 31
0.0
  0
LINE
  5
331
  8
VISIBLE
 10
226.2064933827525
 20
-807.6220585971291
 30
0.0
 11
226.2374508768905
 21
-807.6298576423119
 31
0.0
  0
LINE
  5
332
  8
VISIBLE
 10
226.2374508768905
 20
-807.6298576423119
 30
0.0
 11
226.2680995829575
 21
-807.6383445803538
 31
0.0
  0
LINE
  5
333
  8
VISIBLE
 10
226.2680995829575
 20
-807.6383445803538
 30
0.0
 11
226.2984292203939
 21
-807.6475098614733
 31
0.0
  0
LINE
  5
334
  8
VISIBLE
 10
226.2984292203939
 20
-807.6475098614733
 30
0.0
 11
226.3284295086403
 21
-807.6573439358885
 31
0.0
  0
LINE
  5
335
  8
VISIBLE
 10
226.3284295086403
 20
-807.6573439358885
 30
0.0
 11
226.3580901671372
 21
-807.6678372538179
 31
0.0
  0
LINE
  5
336
  8
VISIBLE
 10
226.3580901671372
 20
-807.6678372538179
 30
0.0
 11
226.3874009153253
 21
-807.6789802654798
 31
0.0
  0
LINE
  5
337
  8
VISIBLE
 10
226.3874009153253
 20
-807.6789802654798
 30
0.0
 11
226.4163514726449
 21
-807.6907634210924
 31
0.0
  0
LINE
  5
338
  8
VISIBLE
 10
226.4163514726449
 20
-807.6907634210924
 30
0.0
 11
226.4449315585367
 21
-807.7031771708741
 31
0.0
  0
LINE
  5
339
  8
VISIBLE
 10
226.4449315585367
 20
-807.7031771708741
 30
0.0
 11
226.4731308924412
 21
-807.7162119650433
 31
0.0
  0
LINE
  5
33A
  8
VISIBLE
 10
226.4731308924412
 20
-807.7162119650433
 30
0.0
 11
226.500939193799
 21
-807.7298582538183
 31
0.0
  0
LINE
  5
33B
  8
VISIBLE
 10
226.500939193799
 20
-807.7298582538183
 30
0.0
 11
226.5283461820506
 21
-807.7441064874172
 31
0.0
  0
LINE
  5
33C
  8
VISIBLE
 10
226.5283461820506
 20
-807.7441064874172
 30
0.0
 11
226.5553415766364
 21
-807.7589471160586
 31
0.0
  0
LINE
  5
33D
  8
VISIBLE
 10
226.5553415766364
 20
-807.7589471160586
 30
0.0
 11
226.5819150969971
 21
-807.7743705899607
 31
0.0
  0
LINE
  5
33E
  8
VISIBLE
 10
226.5819150969971
 20
-807.7743705899607
 30
0.0
 11
226.6080564625732
 21
-807.7903673593416
 31
0.0
  0
LINE
  5
33F
  8
VISIBLE
 10
226.6080564625732
 20
-807.7903673593416
 30
0.0
 11
226.6337553928053
 21
-807.8069278744201
 31
0.0
  0
LINE
  5
340
  8
VISIBLE
 10
226.6337553928053
 20
-807.8069278744201
 30
0.0
 11
226.6590016071339
 21
-807.8240425854142
 31
0.0
  0
LINE
  5
341
  8
VISIBLE
 10
226.6590016071339
 20
-807.8240425854142
 30
0.0
 11
226.6837848249994
 21
-807.8417019425422
 31
0.0
  0
LINE
  5
342
  8
VISIBLE
 10
226.6837848249994
 20
-807.8417019425422
 30
0.0
 11
226.7080947658425
 21
-807.8598963960226
 31
0.0
  0
LINE
  5
343
  8
VISIBLE
 10
226.7080947658425
 20
-807.8598963960226
 30
0.0
 11
226.7319211491038
 21
-807.8786163960735
 31
0.0
  0
LINE
  5
344
  8
VISIBLE
 10
226.7319211491038
 20
-807.8786163960735
 30
0.0
 11
226.7552536942236
 21
-807.8978523929134
 31
0.0
  0
LINE
  5
345
  8
VISIBLE
 10
226.7552536942236
 20
-807.8978523929134
 30
0.0
 11
226.7780821206426
 21
-807.9175948367606
 31
0.0
  0
LINE
  5
346
  8
VISIBLE
 10
226.7780821206426
 20
-807.9175948367606
 30
0.0
 11
226.8003961478014
 21
-807.9378341778333
 31
0.0
  0
LINE
  5
347
  8
VISIBLE
 10
226.8003961478014
 20
-807.9378341778333
 30
0.0
 11
226.8221854951404
 21
-807.9585608663499
 31
0.0
  0
LINE
  5
348
  8
VISIBLE
 10
226.8221854951404
 20
-807.9585608663499
 30
0.0
 11
226.8434398821002
 21
-807.9797653525288
 31
0.0
  0
LINE
  5
349
  8
VISIBLE
 10
226.8434398821002
 20
-807.9797653525288
 30
0.0
 11
226.8641490281213
 21
-808.0014380865882
 31
0.0
  0
LINE
  5
34A
  8
VISIBLE
 10
226.8641490281213
 20
-808.0014380865882
 30
0.0
 11
226.8843026526444
 21
-808.0235695187465
 31
0.0
  0
LINE
  5
34B
  8
VISIBLE
 10
226.8843026526444
 20
-808.0235695187465
 30
0.0
 11
226.9038904751098
 21
-808.0461500992219
 31
0.0
  0
LINE
  5
34C
  8
VISIBLE
 10
226.9038904751098
 20
-808.0461500992219
 30
0.0
 11
226.9229022149582
 21
-808.0691702782328
 31
0.0
  0
LINE
  5
34D
  8
VISIBLE
 10
226.9229022149582
 20
-808.0691702782328
 30
0.0
 11
226.9413275916301
 21
-808.0926205059975
 31
0.0
  0
LINE
  5
34E
  8
VISIBLE
 10
226.9413275916301
 20
-808.0926205059975
 30
0.0
 11
226.959156324566
 21
-808.1164912327345
 31
0.0
  0
LINE
  5
34F
  8
VISIBLE
 10
226.959156324566
 20
-808.1164912327345
 30
0.0
 11
226.9763781332065
 21
-808.1407729086618
 31
0.0
  0
LINE
  5
350
  8
VISIBLE
 10
226.9763781332065
 20
-808.1407729086618
 30
0.0
 11
226.9929827369921
 21
-808.1654559839978
 31
0.0
  0
LINE
  5
351
  8
VISIBLE
 10
226.9929827369921
 20
-808.1654559839978
 30
0.0
 11
227.0089598553633
 21
-808.1905309089611
 31
0.0
  0
LINE
  5
352
  8
VISIBLE
 10
227.0089598553633
 20
-808.1905309089611
 30
0.0
 11
227.0242992077608
 21
-808.2159881337698
 31
0.0
  0
LINE
  5
353
  8
VISIBLE
 10
227.0242992077608
 20
-808.2159881337698
 30
0.0
 11
227.038990513625
 21
-808.2418181086421
 31
0.0
  0
LINE
  5
354
  8
VISIBLE
 10
227.038990513625
 20
-808.2418181086421
 30
0.0
 11
227.0530234923964
 21
-808.2680112837966
 31
0.0
  0
LINE
  5
355
  8
VISIBLE
 10
227.0530234923964
 20
-808.2680112837966
 30
0.0
 11
227.0663878635157
 21
-808.2945581094514
 31
0.0
  0
LINE
  5
356
  8
VISIBLE
 10
227.0663878635157
 20
-808.2945581094514
 30
0.0
 11
227.0790733464233
 21
-808.3214490358248
 31
0.0
  0
LINE
  5
357
  8
VISIBLE
 10
227.0790733464233
 20
-808.3214490358248
 30
0.0
 11
227.0910696605599
 21
-808.3486745131354
 31
0.0
  0
LINE
  5
358
  8
VISIBLE
 10
227.0910696605599
 20
-808.3486745131354
 30
0.0
 11
227.1023665253658
 21
-808.3762249916012
 31
0.0
  0
LINE
  5
359
  8
VISIBLE
 10
227.1023665253658
 20
-808.3762249916012
 30
0.0
 11
227.1129536602817
 21
-808.4040909214407
 31
0.0
  0
LINE
  5
35A
  8
VISIBLE
 10
227.1129536602817
 20
-808.4040909214407
 30
0.0
 11
227.1228207847482
 21
-808.4322627528722
 31
0.0
  0
LINE
  5
35B
  8
VISIBLE
 10
227.1228207847482
 20
-808.4322627528722
 30
0.0
 11
227.1319576182057
 21
-808.4607309361139
 31
0.0
  0
LINE
  5
35C
  8
VISIBLE
 10
227.1319576182057
 20
-808.4607309361139
 30
0.0
 11
227.1403538800947
 21
-808.4894859213844
 31
0.0
  0
LINE
  5
35D
  8
VISIBLE
 10
227.1403538800947
 20
-808.4894859213844
 30
0.0
 11
227.1479992898559
 21
-808.5185181589017
 31
0.0
  0
LINE
  5
35E
  8
VISIBLE
 10
227.1479992898559
 20
-808.5185181589017
 30
0.0
 11
227.1548835669298
 21
-808.5478180988844
 31
0.0
  0
LINE
  5
35F
  8
VISIBLE
 10
227.1548835669298
 20
-808.5478180988844
 30
0.0
 11
227.1609964307569
 21
-808.5773761915505
 31
0.0
  0
LINE
  5
360
  8
VISIBLE
 10
227.1609964307569
 20
-808.5773761915505
 30
0.0
 11
227.1663276007777
 21
-808.6071828871186
 31
0.0
  0
LINE
  5
361
  8
VISIBLE
 10
227.1663276007777
 20
-808.6071828871186
 30
0.0
 11
227.1708667964328
 21
-808.6372286358069
 31
0.0
  0
LINE
  5
362
  8
VISIBLE
 10
227.1708667964328
 20
-808.6372286358069
 30
0.0
 11
227.1746037371628
 21
-808.6675038878337
 31
0.0
  0
LINE
  5
363
  8
VISIBLE
 10
227.1746037371628
 20
-808.6675038878337
 30
0.0
 11
227.1775281424081
 21
-808.6979990934174
 31
0.0
  0
LINE
  5
364
  8
VISIBLE
 10
227.1775281424081
 20
-808.6979990934174
 30
0.0
 11
227.1796297316093
 21
-808.7287047027762
 31
0.0
  0
LINE
  5
365
  8
VISIBLE
 10
227.1796297316093
 20
-808.7287047027762
 30
0.0
 11
227.180898224207
 21
-808.7596111661285
 31
0.0
  0
LINE
  5
366
  8
VISIBLE
 10
227.180898224207
 20
-808.7596111661285
 30
0.0
 11
227.1813233396417
 21
-808.7907089336927
 31
0.0
  0
LINE
  5
367
  8
VISIBLE
 10
227.1813233396417
 20
-808.7907089336927
 30
0.0
 11
227.180906966532
 21
-808.8227203817362
 31
0.0
  0
LINE
  5
368
  8
VISIBLE
 10
227.180906966532
 20
-808.8227203817362
 30
0.0
 11
227.1796641458411
 21
-808.8545054833141
 31
0.0
  0
LINE
  5
369
  8
VISIBLE
 10
227.1796641458411
 20
-808.8545054833141
 30
0.0
 11
227.177604325526
 21
-808.8860553495738
 31
0.0
  0
LINE
  5
36A
  8
VISIBLE
 10
227.177604325526
 20
-808.8860553495738
 30
0.0
 11
227.1747369535439
 21
-808.9173610916616
 31
0.0
  0
LINE
  5
36B
  8
VISIBLE
 10
227.1747369535439
 20
-808.9173610916616
 30
0.0
 11
227.1710714778517
 21
-808.9484138207247
 31
0.0
  0
LINE
  5
36C
  8
VISIBLE
 10
227.1710714778517
 20
-808.9484138207247
 30
0.0
 11
227.1666173464066
 21
-808.97920464791
 31
0.0
  0
LINE
  5
36D
  8
VISIBLE
 10
227.1666173464066
 20
-808.97920464791
 30
0.0
 11
227.1613840071656
 21
-809.0097246843645
 31
0.0
  0
LINE
  5
36E
  8
VISIBLE
 10
227.1613840071656
 20
-809.0097246843645
 30
0.0
 11
227.1553809080858
 21
-809.0399650412348
 31
0.0
  0
LINE
  5
36F
  8
VISIBLE
 10
227.1553809080858
 20
-809.0399650412348
 30
0.0
 11
227.1486174971243
 21
-809.0699168296682
 31
0.0
  0
LINE
  5
370
  8
VISIBLE
 10
227.1486174971243
 20
-809.0699168296682
 30
0.0
 11
227.1411032222383
 21
-809.0995711608114
 31
0.0
  0
LINE
  5
371
  8
VISIBLE
 10
227.1411032222383
 20
-809.0995711608114
 30
0.0
 11
227.1328475313846
 21
-809.1289191458111
 31
0.0
  0
LINE
  5
372
  8
VISIBLE
 10
227.1328475313846
 20
-809.1289191458111
 30
0.0
 11
227.1238598725205
 21
-809.1579518958146
 31
0.0
  0
LINE
  5
373
  8
VISIBLE
 10
227.1238598725205
 20
-809.1579518958146
 30
0.0
 11
227.1141496936031
 21
-809.1866605219685
 31
0.0
  0
LINE
  5
374
  8
VISIBLE
 10
227.1141496936031
 20
-809.1866605219685
 30
0.0
 11
227.1037264425893
 21
-809.21503613542
 31
0.0
  0
LINE
  5
375
  8
VISIBLE
 10
227.1037264425893
 20
-809.21503613542
 30
0.0
 11
227.0925995674363
 21
-809.2430698473156
 31
0.0
  0
LINE
  5
376
  8
VISIBLE
 10
227.0925995674363
 20
-809.2430698473156
 30
0.0
 11
227.0807785161011
 21
-809.2707527688027
 31
0.0
  0
LINE
  5
377
  8
VISIBLE
 10
227.0807785161011
 20
-809.2707527688027
 30
0.0
 11
227.0682727365408
 21
-809.2980760110279
 31
0.0
  0
LINE
  5
378
  8
VISIBLE
 10
227.0682727365408
 20
-809.2980760110279
 30
0.0
 11
227.0550916767126
 21
-809.3250306851381
 31
0.0
  0
LINE
  5
379
  8
VISIBLE
 10
227.0550916767126
 20
-809.3250306851381
 30
0.0
 11
227.0412447845735
 21
-809.3516079022803
 31
0.0
  0
LINE
  5
37A
  8
VISIBLE
 10
227.0412447845735
 20
-809.3516079022803
 30
0.0
 11
227.0267415080804
 21
-809.3777987736014
 31
0.0
  0
LINE
  5
37B
  8
VISIBLE
 10
227.0267415080804
 20
-809.3777987736014
 30
0.0
 11
227.0115912951907
 21
-809.4035944102483
 31
0.0
  0
LINE
  5
37C
  8
VISIBLE
 10
227.0115912951907
 20
-809.4035944102483
 30
0.0
 11
226.9958035938613
 21
-809.4289859233678
 31
0.0
  0
LINE
  5
37D
  8
VISIBLE
 10
226.9958035938613
 20
-809.4289859233678
 30
0.0
 11
226.9793878520493
 21
-809.453964424107
 31
0.0
  0
LINE
  5
37E
  8
VISIBLE
 10
226.9793878520493
 20
-809.453964424107
 30
0.0
 11
226.9623535177117
 21
-809.4785210236125
 31
0.0
  0
LINE
  5
37F
  8
VISIBLE
 10
226.9623535177117
 20
-809.4785210236125
 30
0.0
 11
226.9447100388057
 21
-809.5026468330316
 31
0.0
  0
LINE
  5
380
  8
VISIBLE
 10
226.9447100388057
 20
-809.5026468330316
 30
0.0
 11
226.9264668632884
 21
-809.526332963511
 31
0.0
  0
LINE
  5
381
  8
VISIBLE
 10
226.9264668632884
 20
-809.526332963511
 30
0.0
 11
226.9076334391168
 21
-809.5495705261977
 31
0.0
  0
LINE
  5
382
  8
VISIBLE
 10
226.9076334391168
 20
-809.5495705261977
 30
0.0
 11
226.8882192142479
 21
-809.5723506322385
 31
0.0
  0
LINE
  5
383
  8
VISIBLE
 10
226.8882192142479
 20
-809.5723506322385
 30
0.0
 11
226.8682336366389
 21
-809.5946643927803
 31
0.0
  0
LINE
  5
384
  8
VISIBLE
 10
226.8682336366389
 20
-809.5946643927803
 30
0.0
 11
226.8476861542469
 21
-809.6165029189699
 31
0.0
  0
LINE
  5
385
  8
VISIBLE
 10
226.8476861542469
 20
-809.6165029189699
 30
0.0
 11
226.8265862150289
 21
-809.6378573219546
 31
0.0
  0
LINE
  5
386
  8
VISIBLE
 10
226.8265862150289
 20
-809.6378573219546
 30
0.0
 11
226.804943266942
 21
-809.658718712881
 31
0.0
  0
LINE
  5
387
  8
VISIBLE
 10
226.804943266942
 20
-809.658718712881
 30
0.0
 11
226.7827667579433
 21
-809.6790782028959
 31
0.0
  0
LINE
  5
388
  8
VISIBLE
 10
226.7827667579433
 20
-809.6790782028959
 30
0.0
 11
226.7600661359899
 21
-809.6989269031466
 31
0.0
  0
LINE
  5
389
  8
VISIBLE
 10
226.7600661359899
 20
-809.6989269031466
 30
0.0
 11
226.7368508490388
 21
-809.7182559247797
 31
0.0
  0
LINE
  5
38A
  8
VISIBLE
 10
226.7368508490388
 20
-809.7182559247797
 30
0.0
 11
226.7131303450471
 21
-809.7370563789422
 31
0.0
  0
LINE
  5
38B
  8
VISIBLE
 10
226.7131303450471
 20
-809.7370563789422
 30
0.0
 11
226.6889140719719
 21
-809.7553193767809
 31
0.0
  0
LINE
  5
38C
  8
VISIBLE
 10
226.6889140719719
 20
-809.7553193767809
 30
0.0
 11
226.6642114777703
 21
-809.7730360294429
 31
0.0
  0
LINE
  5
38D
  8
VISIBLE
 10
226.6642114777703
 20
-809.7730360294429
 30
0.0
 11
226.6390320103994
 21
-809.7901974480751
 31
0.0
  0
LINE
  5
38E
  8
VISIBLE
 10
226.6390320103994
 20
-809.7901974480751
 30
0.0
 11
226.6133851178162
 21
-809.8067947438242
 31
0.0
  0
LINE
  5
38F
  8
VISIBLE
 10
226.6133851178162
 20
-809.8067947438242
 30
0.0
 11
226.5872802479778
 21
-809.8228190278373
 31
0.0
  0
LINE
  5
390
  8
VISIBLE
 10
226.5872802479778
 20
-809.8228190278373
 30
0.0
 11
226.5607268488413
 21
-809.8382614112612
 31
0.0
  0
LINE
  5
391
  8
VISIBLE
 10
226.5607268488413
 20
-809.8382614112612
 30
0.0
 11
226.5337343683638
 21
-809.8531130052429
 31
0.0
  0
LINE
  5
392
  8
VISIBLE
 10
226.5337343683638
 20
-809.8531130052429
 30
0.0
 11
226.5063122545023
 21
-809.867364920929
 31
0.0
  0
LINE
  5
393
  8
VISIBLE
 10
226.5063122545023
 20
-809.867364920929
 30
0.0
 11
226.4784699552139
 21
-809.8810082694667
 31
0.0
  0
LINE
  5
394
  8
VISIBLE
 10
226.4784699552139
 20
-809.8810082694667
 30
0.0
 11
226.4502169184558
 21
-809.894034162003
 31
0.0
  0
LINE
  5
395
  8
VISIBLE
 10
226.4502169184558
 20
-809.894034162003
 30
0.0
 11
226.421562592185
 21
-809.9064337096846
 31
0.0
  0
LINE
  5
396
  8
VISIBLE
 10
226.421562592185
 20
-809.9064337096846
 30
0.0
 11
226.3925164243585
 21
-809.9181980236585
 31
0.0
  0
LINE
  5
397
  8
VISIBLE
 10
226.3925164243585
 20
-809.9181980236585
 30
0.0
 11
226.3630878629334
 21
-809.9293182150716
 31
0.0
  0
LINE
  5
398
  8
VISIBLE
 10
226.3630878629334
 20
-809.9293182150716
 30
0.0
 11
226.3332863558669
 21
-809.9397853950708
 31
0.0
  0
LINE
  5
399
  8
VISIBLE
 10
226.3332863558669
 20
-809.9397853950708
 30
0.0
 11
226.303121351116
 21
-809.949590674803
 31
0.0
  0
LINE
  5
39A
  8
VISIBLE
 10
226.303121351116
 20
-809.949590674803
 30
0.0
 11
226.2726022966377
 21
-809.958725165415
 31
0.0
  0
LINE
  5
39B
  8
VISIBLE
 10
226.2726022966377
 20
-809.958725165415
 30
0.0
 11
226.2417386403893
 21
-809.967179978054
 31
0.0
  0
LINE
  5
39C
  8
VISIBLE
 10
226.2417386403893
 20
-809.967179978054
 30
0.0
 11
226.2105398303276
 21
-809.9749462238665
 31
0.0
  0
LINE
  5
39D
  8
VISIBLE
 10
226.2105398303276
 20
-809.9749462238665
 30
0.0
 11
226.1790153144099
 21
-809.9820150139997
 31
0.0
  0
LINE
  5
39E
  8
VISIBLE
 10
226.1790153144099
 20
-809.9820150139997
 30
0.0
 11
226.1471745405931
 21
-809.9883774596004
 31
0.0
  0
LINE
  5
39F
  8
VISIBLE
 10
226.1471745405931
 20
-809.9883774596004
 30
0.0
 11
226.1150269568345
 21
-809.9940246718156
 31
0.0
  0
LINE
  5
3A0
  8
VISIBLE
 10
226.1150269568345
 20
-809.9940246718156
 30
0.0
 11
226.0825820110909
 21
-809.9989477617921
 31
0.0
  0
LINE
  5
3A1
  8
VISIBLE
 10
226.0825820110909
 20
-809.9989477617921
 30
0.0
 11
226.0498491513197
 21
-810.0031378406768
 31
0.0
  0
LINE
  5
3A2
  8
VISIBLE
 10
226.0498491513197
 20
-810.0031378406768
 30
0.0
 11
226.0168378254777
 21
-810.0065860196169
 31
0.0
  0
LINE
  5
3A3
  8
VISIBLE
 10
226.0168378254777
 20
-810.0065860196169
 30
0.0
 11
225.9835574815221
 21
-810.0092834097588
 31
0.0
  0
LINE
  5
3A4
  8
VISIBLE
 10
225.9835574815221
 20
-810.0092834097588
 30
0.0
 11
225.95001756741
 21
-810.0112211222498
 31
0.0
  0
LINE
  5
3A5
  8
VISIBLE
 10
225.95001756741
 20
-810.0112211222498
 30
0.0
 11
225.9162275310984
 21
-810.0123902682367
 31
0.0
  0
LINE
  5
3A6
  8
VISIBLE
 10
225.9162275310984
 20
-810.0123902682367
 30
0.0
 11
225.8821968205444
 21
-810.0127819588663
 31
0.0
  0
LINE
  5
3A7
  8
VISIBLE
 10
225.8821968205444
 20
-810.0127819588663
 30
0.0
 11
225.8488145234648
 21
-810.0123820344138
 31
0.0
  0
LINE
  5
3A8
  8
VISIBLE
 10
225.8488145234648
 20
-810.0123820344138
 30
0.0
 11
225.8156376606231
 21
-810.0111887097407
 31
0.0
  0
LINE
  5
3A9
  8
VISIBLE
 10
225.8156376606231
 20
-810.0111887097407
 30
0.0
 11
225.7826764809139
 21
-810.0092116578737
 31
0.0
  0
LINE
  5
3AA
  8
VISIBLE
 10
225.7826764809139
 20
-810.0092116578737
 30
0.0
 11
225.7499412332315
 21
-810.0064605518396
 31
0.0
  0
LINE
  5
3AB
  8
VISIBLE
 10
225.7499412332315
 20
-810.0064605518396
 30
0.0
 11
225.7174421664705
 21
-810.002945064665
 31
0.0
  0
LINE
  5
3AC
  8
VISIBLE
 10
225.7174421664705
 20
-810.002945064665
 30
0.0
 11
225.6851895295254
 21
-809.9986748693766
 31
0.0
  0
LINE
  5
3AD
  8
VISIBLE
 10
225.6851895295254
 20
-809.9986748693766
 30
0.0
 11
225.6531935712907
 21
-809.9936596390012
 31
0.0
  0
LINE
  5
3AE
  8
VISIBLE
 10
225.6531935712907
 20
-809.9936596390012
 30
0.0
 11
225.6214645406609
 21
-809.9879090465654
 31
0.0
  0
LINE
  5
3AF
  8
VISIBLE
 10
225.6214645406609
 20
-809.9879090465654
 30
0.0
 11
225.5900126865305
 21
-809.9814327650959
 31
0.0
  0
LINE
  5
3B0
  8
VISIBLE
 10
225.5900126865305
 20
-809.9814327650959
 30
0.0
 11
225.5588482577939
 21
-809.9742404676194
 31
0.0
  0
LINE
  5
3B1
  8
VISIBLE
 10
225.5588482577939
 20
-809.9742404676194
 30
0.0
 11
225.5279815033456
 21
-809.9663418271628
 31
0.0
  0
LINE
  5
3B2
  8
VISIBLE
 10
225.5279815033456
 20
-809.9663418271628
 30
0.0
 11
225.4974226720802
 21
-809.9577465167524
 31
0.0
  0
LINE
  5
3B3
  8
VISIBLE
 10
225.4974226720802
 20
-809.9577465167524
 30
0.0
 11
225.4671820128922
 21
-809.9484642094152
 31
0.0
  0
LINE
  5
3B4
  8
VISIBLE
 10
225.4671820128922
 20
-809.9484642094152
 30
0.0
 11
225.4372697746759
 21
-809.938504578178
 31
0.0
  0
LINE
  5
3B5
  8
VISIBLE
 10
225.4372697746759
 20
-809.938504578178
 30
0.0
 11
225.407696206326
 21
-809.9278772960672
 31
0.0
  0
LINE
  5
3B6
  8
VISIBLE
 10
225.407696206326
 20
-809.9278772960672
 30
0.0
 11
225.3784715567369
 21
-809.9165920361097
 31
0.0
  0
LINE
  5
3B7
  8
VISIBLE
 10
225.3784715567369
 20
-809.9165920361097
 30
0.0
 11
225.3496060748031
 21
-809.9046584713321
 31
0.0
  0
LINE
  5
3B8
  8
VISIBLE
 10
225.3496060748031
 20
-809.9046584713321
 30
0.0
 11
225.3211100094192
 21
-809.8920862747611
 31
0.0
  0
LINE
  5
3B9
  8
VISIBLE
 10
225.3211100094192
 20
-809.8920862747611
 30
0.0
 11
225.2929936094795
 21
-809.8788851194236
 31
0.0
  0
LINE
  5
3BA
  8
VISIBLE
 10
225.2929936094795
 20
-809.8788851194236
 30
0.0
 11
225.2652671238786
 21
-809.865064678346
 31
0.0
  0
LINE
  5
3BB
  8
VISIBLE
 10
225.2652671238786
 20
-809.865064678346
 30
0.0
 11
225.2379408015109
 21
-809.8506346245551
 31
0.0
  0
LINE
  5
3BC
  8
VISIBLE
 10
225.2379408015109
 20
-809.8506346245551
 30
0.0
 11
225.2110248912711
 21
-809.8356046310778
 31
0.0
  0
LINE
  5
3BD
  8
VISIBLE
 10
225.2110248912711
 20
-809.8356046310778
 30
0.0
 11
225.1845296420535
 21
-809.8199843709405
 31
0.0
  0
LINE
  5
3BE
  8
VISIBLE
 10
225.1845296420535
 20
-809.8199843709405
 30
0.0
 11
225.1584653027527
 21
-809.8037835171701
 31
0.0
  0
LINE
  5
3BF
  8
VISIBLE
 10
225.1584653027527
 20
-809.8037835171701
 30
0.0
 11
225.1328421222631
 21
-809.7870117427932
 31
0.0
  0
LINE
  5
3C0
  8
VISIBLE
 10
225.1328421222631
 20
-809.7870117427932
 30
0.0
 11
225.1076703494793
 21
-809.7696787208366
 31
0.0
  0
LINE
  5
3C1
  8
VISIBLE
 10
225.1076703494793
 20
-809.7696787208366
 30
0.0
 11
225.0829602332956
 21
-809.751794124327
 31
0.0
  0
LINE
  5
3C2
  8
VISIBLE
 10
225.0829602332956
 20
-809.751794124327
 30
0.0
 11
225.0587220226068
 21
-809.733367626291
 31
0.0
  0
LINE
  5
3C3
  8
VISIBLE
 10
225.0587220226068
 20
-809.733367626291
 30
0.0
 11
225.0349659663071
 21
-809.7144088997554
 31
0.0
  0
LINE
  5
3C4
  8
VISIBLE
 10
225.0349659663071
 20
-809.7144088997554
 30
0.0
 11
225.0117023132912
 21
-809.6949276177468
 31
0.0
  0
LINE
  5
3C5
  8
VISIBLE
 10
225.0117023132912
 20
-809.6949276177468
 30
0.0
 11
224.9889413124535
 21
-809.6749334532918
 31
0.0
  0
LINE
  5
3C6
  8
VISIBLE
 10
224.9889413124535
 20
-809.6749334532918
 30
0.0
 11
224.9666932126885
 21
-809.6544360794175
 31
0.0
  0
LINE
  5
3C7
  8
VISIBLE
 10
224.9666932126885
 20
-809.6544360794175
 30
0.0
 11
224.9449682628907
 21
-809.6334451691503
 31
0.0
  0
LINE
  5
3C8
  8
VISIBLE
 10
224.9449682628907
 20
-809.6334451691503
 30
0.0
 11
224.9237767119546
 21
-809.6119703955169
 31
0.0
  0
LINE
  5
3C9
  8
VISIBLE
 10
224.9237767119546
 20
-809.6119703955169
 30
0.0
 11
224.9031288087746
 21
-809.5900214315441
 31
0.0
  0
LINE
  5
3CA
  8
VISIBLE
 10
224.9031288087746
 20
-809.5900214315441
 30
0.0
 11
224.8830348022453
 21
-809.5676079502584
 31
0.0
  0
LINE
  5
3CB
  8
VISIBLE
 10
224.8830348022453
 20
-809.5676079502584
 30
0.0
 11
224.8635049412612
 21
-809.5447396246868
 31
0.0
  0
LINE
  5
3CC
  8
VISIBLE
 10
224.8635049412612
 20
-809.5447396246868
 30
0.0
 11
224.8445494747167
 21
-809.5214261278559
 31
0.0
  0
LINE
  5
3CD
  8
VISIBLE
 10
224.8445494747167
 20
-809.5214261278559
 30
0.0
 11
224.8261786515064
 21
-809.4976771327922
 31
0.0
  0
LINE
  5
3CE
  8
VISIBLE
 10
224.8261786515064
 20
-809.4976771327922
 30
0.0
 11
224.8084027205247
 21
-809.4735023125226
 31
0.0
  0
LINE
  5
3CF
  8
VISIBLE
 10
224.8084027205247
 20
-809.4735023125226
 30
0.0
 11
224.7912319306662
 21
-809.4489113400737
 31
0.0
  0
LINE
  5
3D0
  8
VISIBLE
 10
224.7912319306662
 20
-809.4489113400737
 30
0.0
 11
224.7746765308253
 21
-809.4239138884723
 31
0.0
  0
LINE
  5
3D1
  8
VISIBLE
 10
224.7746765308253
 20
-809.4239138884723
 30
0.0
 11
224.7587467698965
 21
-809.3985196307452
 31
0.0
  0
LINE
  5
3D2
  8
VISIBLE
 10
224.7587467698965
 20
-809.3985196307452
 30
0.0
 11
224.7434528967743
 21
-809.3727382399188
 31
0.0
  0
LINE
  5
3D3
  8
VISIBLE
 10
224.7434528967743
 20
-809.3727382399188
 30
0.0
 11
224.7288051603533
 21
-809.3465793890201
 31
0.0
  0
LINE
  5
3D4
  8
VISIBLE
 10
224.7288051603533
 20
-809.3465793890201
 30
0.0
 11
224.7148138095278
 21
-809.3200527510757
 31
0.0
  0
LINE
  5
3D5
  8
VISIBLE
 10
224.7148138095278
 20
-809.3200527510757
 30
0.0
 11
224.7014890931924
 21
-809.2931679991121
 31
0.0
  0
LINE
  5
3D6
  8
VISIBLE
 10
224.7014890931924
 20
-809.2931679991121
 30
0.0
 11
224.6888412602416
 21
-809.2659348061563
 31
0.0
  0
LINE
  5
3D7
  8
VISIBLE
 10
224.6888412602416
 20
-809.2659348061563
 30
0.0
 11
224.67688055957
 21
-809.2383628452347
 31
0.0
  0
LINE
  5
3D8
  8
VISIBLE
 10
224.67688055957
 20
-809.2383628452347
 30
0.0
 11
224.6656172400718
 21
-809.2104617893744
 31
0.0
  0
LINE
  5
3D9
  8
VISIBLE
 10
224.6656172400718
 20
-809.2104617893744
 30
0.0
 11
224.6550615506417
 21
-809.1822413116017
 31
0.0
  0
LINE
  5
3DA
  8
VISIBLE
 10
224.6550615506417
 20
-809.1822413116017
 30
0.0
 11
224.6452237401742
 21
-809.1537110849436
 31
0.0
  0
LINE
  5
3DB
  8
VISIBLE
 10
224.6452237401742
 20
-809.1537110849436
 30
0.0
 11
224.6361140575638
 21
-809.1248807824265
 31
0.0
  0
LINE
  5
3DC
  8
VISIBLE
 10
224.6361140575638
 20
-809.1248807824265
 30
0.0
 11
224.6277427517048
 21
-809.0957600770773
 31
0.0
  0
LINE
  5
3DD
  8
VISIBLE
 10
224.6277427517048
 20
-809.0957600770773
 30
0.0
 11
224.620120071492
 21
-809.0663586419228
 31
0.0
  0
LINE
  5
3DE
  8
VISIBLE
 10
224.620120071492
 20
-809.0663586419228
 30
0.0
 11
224.6132562658196
 21
-809.0366861499895
 31
0.0
  0
LINE
  5
3DF
  8
VISIBLE
 10
224.6132562658196
 20
-809.0366861499895
 30
0.0
 11
224.6071615835822
 21
-809.0067522743041
 31
0.0
  0
LINE
  5
3E0
  8
VISIBLE
 10
224.6071615835822
 20
-809.0067522743041
 30
0.0
 11
224.6018462736744
 21
-808.9765666878934
 31
0.0
  0
LINE
  5
3E1
  8
VISIBLE
 10
224.6018462736744
 20
-808.9765666878934
 30
0.0
 11
224.5973205849906
 21
-808.9461390637841
 31
0.0
  0
LINE
  5
3E2
  8
VISIBLE
 10
224.5973205849906
 20
-808.9461390637841
 30
0.0
 11
224.5935947664253
 21
-808.9154790750028
 31
0.0
  0
LINE
  5
3E3
  8
VISIBLE
 10
224.5935947664253
 20
-808.9154790750028
 30
0.0
 11
224.590679066873
 21
-808.8845963945764
 31
0.0
  0
LINE
  5
3E4
  8
VISIBLE
 10
224.590679066873
 20
-808.8845963945764
 30
0.0
 11
224.5885837352281
 21
-808.8535006955315
 31
0.0
  0
LINE
  5
3E5
  8
VISIBLE
 10
224.5885837352281
 20
-808.8535006955315
 30
0.0
 11
224.5873190203852
 21
-808.8222016508946
 31
0.0
  0
LINE
  5
3E6
  8
VISIBLE
 10
224.5873190203852
 20
-808.8222016508946
 30
0.0
 11
224.5868951712388
 21
-808.7907089336927
 31
0.0
  0
LINE
  5
3E7
  8
VISIBLE
 10
224.5412137476278
 20
-806.2463974102552
 30
0.0
 11
224.5419967982675
 21
-806.2145356477907
 31
0.0
  0
LINE
  5
3E8
  8
VISIBLE
 10
224.5419967982675
 20
-806.2145356477907
 30
0.0
 11
224.5436268979648
 21
-806.1828720890862
 31
0.0
  0
LINE
  5
3E9
  8
VISIBLE
 10
224.5436268979648
 20
-806.1828720890862
 30
0.0
 11
224.5460935836208
 21
-806.1514164481464
 31
0.0
  0
LINE
  5
3EA
  8
VISIBLE
 10
224.5460935836208
 20
-806.1514164481464
 30
0.0
 11
224.549386392137
 21
-806.1201784389764
 31
0.0
  0
LINE
  5
3EB
  8
VISIBLE
 10
224.549386392137
 20
-806.1201784389764
 30
0.0
 11
224.5534948604146
 21
-806.0891677755808
 31
0.0
  0
LINE
  5
3EC
  8
VISIBLE
 10
224.5534948604146
 20
-806.0891677755808
 30
0.0
 11
224.5584085253549
 21
-806.0583941719648
 31
0.0
  0
LINE
  5
3ED
  8
VISIBLE
 10
224.5584085253549
 20
-806.0583941719648
 30
0.0
 11
224.5641169238593
 21
-806.027867342133
 31
0.0
  0
LINE
  5
3EE
  8
VISIBLE
 10
224.5641169238593
 20
-806.027867342133
 30
0.0
 11
224.570609592829
 21
-805.9975970000905
 31
0.0
  0
LINE
  5
3EF
  8
VISIBLE
 10
224.570609592829
 20
-805.9975970000905
 30
0.0
 11
224.5778760691655
 21
-805.9675928598423
 31
0.0
  0
LINE
  5
3F0
  8
VISIBLE
 10
224.5778760691655
 20
-805.9675928598423
 30
0.0
 11
224.5859058897699
 21
-805.937864635393
 31
0.0
  0
LINE
  5
3F1
  8
VISIBLE
 10
224.5859058897699
 20
-805.937864635393
 30
0.0
 11
224.5946885915437
 21
-805.9084220407476
 31
0.0
  0
LINE
  5
3F2
  8
VISIBLE
 10
224.5946885915437
 20
-805.9084220407476
 30
0.0
 11
224.6042137113882
 21
-805.879274789911
 31
0.0
  0
LINE
  5
3F3
  8
VISIBLE
 10
224.6042137113882
 20
-805.879274789911
 30
0.0
 11
224.6144707862045
 21
-805.8504325968881
 31
0.0
  0
LINE
  5
3F4
  8
VISIBLE
 10
224.6144707862045
 20
-805.8504325968881
 30
0.0
 11
224.6254493528941
 21
-805.821905175684
 31
0.0
  0
LINE
  5
3F5
  8
VISIBLE
 10
224.6254493528941
 20
-805.821905175684
 30
0.0
 11
224.6371389483583
 21
-805.7937022403034
 31
0.0
  0
LINE
  5
3F6
  8
VISIBLE
 10
224.6371389483583
 20
-805.7937022403034
 30
0.0
 11
224.6495291094984
 21
-805.7658335047512
 31
0.0
  0
LINE
  5
3F7
  8
VISIBLE
 10
224.6495291094984
 20
-805.7658335047512
 30
0.0
 11
224.6626093732157
 21
-805.7383086830323
 31
0.0
  0
LINE
  5
3F8
  8
VISIBLE
 10
224.6626093732157
 20
-805.7383086830323
 30
0.0
 11
224.6763692764115
 21
-805.7111374891515
 31
0.0
  0
LINE
  5
3F9
  8
VISIBLE
 10
224.6763692764115
 20
-805.7111374891515
 30
0.0
 11
224.6907983559872
 21
-805.6843296371138
 31
0.0
  0
LINE
  5
3FA
  8
VISIBLE
 10
224.6907983559872
 20
-805.6843296371138
 30
0.0
 11
224.7058861488441
 21
-805.6578948409241
 31
0.0
  0
LINE
  5
3FB
  8
VISIBLE
 10
224.7058861488441
 20
-805.6578948409241
 30
0.0
 11
224.7216221918833
 21
-805.6318428145872
 31
0.0
  0
LINE
  5
3FC
  8
VISIBLE
 10
224.7216221918833
 20
-805.6318428145872
 30
0.0
 11
224.7379960220064
 21
-805.6061832721083
 31
0.0
  0
LINE
  5
3FD
  8
VISIBLE
 10
224.7379960220064
 20
-805.6061832721083
 30
0.0
 11
224.7549971761146
 21
-805.580925927492
 31
0.0
  0
LINE
  5
3FE
  8
VISIBLE
 10
224.7549971761146
 20
-805.580925927492
 30
0.0
 11
224.7726151911092
 21
-805.5560804947431
 31
0.0
  0
LINE
  5
3FF
  8
VISIBLE
 10
224.7726151911092
 20
-805.5560804947431
 30
0.0
 11
224.7908396038915
 21
-805.5316566878668
 31
0.0
  0
LINE
  5
400
  8
VISIBLE
 10
224.7908396038915
 20
-805.5316566878668
 30
0.0
 11
224.8096599513629
 21
-805.5076642208677
 31
0.0
  0
LINE
  5
401
  8
VISIBLE
 10
224.8096599513629
 20
-805.5076642208677
 30
0.0
 11
224.8290657704246
 21
-805.4841128077509
 31
0.0
  0
LINE
  5
402
  8
VISIBLE
 10
224.8290657704246
 20
-805.4841128077509
 30
0.0
 11
224.849046597978
 21
-805.4610121625212
 31
0.0
  0
LINE
  5
403
  8
VISIBLE
 10
224.849046597978
 20
-805.4610121625212
 30
0.0
 11
224.8695919709244
 21
-805.4383719991836
 31
0.0
  0
LINE
  5
404
  8
VISIBLE
 10
224.8695919709244
 20
-805.4383719991836
 30
0.0
 11
224.8906914261651
 21
-805.416202031743
 31
0.0
  0
LINE
  5
405
  8
VISIBLE
 10
224.8906914261651
 20
-805.416202031743
 30
0.0
 11
224.9123345006014
 21
-805.3945119742041
 31
0.0
  0
LINE
  5
406
  8
VISIBLE
 10
224.9123345006014
 20
-805.3945119742041
 30
0.0
 11
224.9345107311347
 21
-805.373311540572
 31
0.0
  0
LINE
  5
407
  8
VISIBLE
 10
224.9345107311347
 20
-805.373311540572
 30
0.0
 11
224.9572096546662
 21
-805.3526104448515
 31
0.0
  0
LINE
  5
408
  8
VISIBLE
 10
224.9572096546662
 20
-805.3526104448515
 30
0.0
 11
224.9804208080973
 21
-805.3324184010474
 31
0.0
  0
LINE
  5
409
  8
VISIBLE
 10
224.9804208080973
 20
-805.3324184010474
 30
0.0
 11
225.0041337283292
 21
-805.3127451231649
 31
0.0
  0
LINE
  5
40A
  8
VISIBLE
 10
225.0041337283292
 20
-805.3127451231649
 30
0.0
 11
225.0283379522633
 21
-805.2936003252084
 31
0.0
  0
LINE
  5
40B
  8
VISIBLE
 10
225.0283379522633
 20
-805.2936003252084
 30
0.0
 11
225.053023016801
 21
-805.2749937211833
 31
0.0
  0
LINE
  5
40C
  8
VISIBLE
 10
225.053023016801
 20
-805.2749937211833
 30
0.0
 11
225.0781784588435
 21
-805.2569350250941
 31
0.0
  0
LINE
  5
40D
  8
VISIBLE
 10
225.0781784588435
 20
-805.2569350250941
 30
0.0
 11
225.1037938152921
 21
-805.2394339509459
 31
0.0
  0
LINE
  5
40E
  8
VISIBLE
 10
225.1037938152921
 20
-805.2394339509459
 30
0.0
 11
225.1298586230482
 21
-805.2225002127436
 31
0.0
  0
LINE
  5
40F
  8
VISIBLE
 10
225.1298586230482
 20
-805.2225002127436
 30
0.0
 11
225.156362419013
 21
-805.2061435244921
 31
0.0
  0
LINE
  5
410
  8
VISIBLE
 10
225.156362419013
 20
-805.2061435244921
 30
0.0
 11
225.183294740088
 21
-805.1903736001963
 31
0.0
  0
LINE
  5
411
  8
VISIBLE
 10
225.183294740088
 20
-805.1903736001963
 30
0.0
 11
225.2106451231743
 21
-805.175200153861
 31
0.0
  0
LINE
  5
412
  8
VISIBLE
 10
225.2106451231743
 20
-805.175200153861
 30
0.0
 11
225.2384031051734
 21
-805.1606328994911
 31
0.0
  0
LINE
  5
413
  8
VISIBLE
 10
225.2384031051734
 20
-805.1606328994911
 30
0.0
 11
225.2665582229865
 21
-805.1466815510915
 31
0.0
  0
LINE
  5
414
  8
VISIBLE
 10
225.2665582229865
 20
-805.1466815510915
 30
0.0
 11
225.2951000135149
 21
-805.1333558226672
 31
0.0
  0
LINE
  5
415
  8
VISIBLE
 10
225.2951000135149
 20
-805.1333558226672
 30
0.0
 11
225.32401801366
 21
-805.120665428223
 31
0.0
  0
LINE
  5
416
  8
VISIBLE
 10
225.32401801366
 20
-805.120665428223
 30
0.0
 11
225.3533017603231
 21
-805.1086200817639
 31
0.0
  0
LINE
  5
417
  8
VISIBLE
 10
225.3533017603231
 20
-805.1086200817639
 30
0.0
 11
225.3829407904054
 21
-805.0972294972946
 31
0.0
  0
LINE
  5
418
  8
VISIBLE
 10
225.3829407904054
 20
-805.0972294972946
 30
0.0
 11
225.4129246408084
 21
-805.0865033888202
 31
0.0
  0
LINE
  5
419
  8
VISIBLE
 10
225.4129246408084
 20
-805.0865033888202
 30
0.0
 11
225.4432428484333
 21
-805.0764514703455
 31
0.0
  0
LINE
  5
41A
  8
VISIBLE
 10
225.4432428484333
 20
-805.0764514703455
 30
0.0
 11
225.4738849501814
 21
-805.0670834558753
 31
0.0
  0
LINE
  5
41B
  8
VISIBLE
 10
225.4738849501814
 20
-805.0670834558753
 30
0.0
 11
225.5048404829541
 21
-805.0584090594145
 31
0.0
  0
LINE
  5
41C
  8
VISIBLE
 10
225.5048404829541
 20
-805.0584090594145
 30
0.0
 11
225.5360989836526
 21
-805.0504379949682
 31
0.0
  0
LINE
  5
41D
  8
VISIBLE
 10
225.5360989836526
 20
-805.0504379949682
 30
0.0
 11
225.5676499891783
 21
-805.0431799765412
 31
0.0
  0
LINE
  5
41E
  8
VISIBLE
 10
225.5676499891783
 20
-805.0431799765412
 30
0.0
 11
225.5994830364326
 21
-805.0366447181384
 31
0.0
  0
LINE
  5
41F
  8
VISIBLE
 10
225.5994830364326
 20
-805.0366447181384
 30
0.0
 11
225.6315876623166
 21
-805.0308419337646
 31
0.0
  0
LINE
  5
420
  8
VISIBLE
 10
225.6315876623166
 20
-805.0308419337646
 30
0.0
 11
225.6639534037317
 21
-805.0257813374247
 31
0.0
  0
LINE
  5
421
  8
VISIBLE
 10
225.6639534037317
 20
-805.0257813374247
 30
0.0
 11
225.6965697975793
 21
-805.0214726431238
 31
0.0
  0
LINE
  5
422
  8
VISIBLE
 10
225.6965697975793
 20
-805.0214726431238
 30
0.0
 11
225.7294263807607
 21
-805.0179255648666
 31
0.0
  0
LINE
  5
423
  8
VISIBLE
 10
225.7294263807607
 20
-805.0179255648666
 30
0.0
 11
225.7625126901771
 21
-805.0151498166581
 31
0.0
  0
LINE
  5
424
  8
VISIBLE
 10
225.7625126901771
 20
-805.0151498166581
 30
0.0
 11
225.7958182627299
 21
-805.013155112503
 31
0.0
  0
LINE
  5
425
  8
VISIBLE
 10
225.7958182627299
 20
-805.013155112503
 30
0.0
 11
225.8293326353204
 21
-805.0119511664064
 31
0.0
  0
LINE
  5
426
  8
VISIBLE
 10
225.8293326353204
 20
-805.0119511664064
 30
0.0
 11
225.86304534485
 21
-805.0115476923731
 31
0.0
  0
LINE
  5
427
  8
VISIBLE
 10
225.86304534485
 20
-805.0115476923731
 30
0.0
 11
225.8971160994807
 21
-805.0119513668994
 31
0.0
  0
LINE
  5
428
  8
VISIBLE
 10
225.8971160994807
 20
-805.0119513668994
 30
0.0
 11
225.9309772717627
 21
-805.0131558819825
 31
0.0
  0
LINE
  5
429
  8
VISIBLE
 10
225.9309772717627
 20
-805.0131558819825
 30
0.0
 11
225.9646183985974
 21
-805.0151514748779
 31
0.0
  0
LINE
  5
42A
  8
VISIBLE
 10
225.9646183985974
 20
-805.0151514748779
 30
0.0
 11
225.9980290168861
 21
-805.0179283828418
 31
0.0
  0
LINE
  5
42B
  8
VISIBLE
 10
225.9980290168861
 20
-805.0179283828418
 30
0.0
 11
226.03119866353
 21
-805.0214768431299
 31
0.0
  0
LINE
  5
42C
  8
VISIBLE
 10
226.03119866353
 20
-805.0214768431299
 30
0.0
 11
226.0641168754305
 21
-805.0257870929984
 31
0.0
  0
LINE
  5
42D
  8
VISIBLE
 10
226.0641168754305
 20
-805.0257870929984
 30
0.0
 11
226.0967731894889
 21
-805.0308493697028
 31
0.0
  0
LINE
  5
42E
  8
VISIBLE
 10
226.0967731894889
 20
-805.0308493697028
 30
0.0
 11
226.1291571426066
 21
-805.0366539104991
 31
0.0
  0
LINE
  5
42F
  8
VISIBLE
 10
226.1291571426066
 20
-805.0366539104991
 30
0.0
 11
226.1612582716848
 21
-805.0431909526435
 31
0.0
  0
LINE
  5
430
  8
VISIBLE
 10
226.1612582716848
 20
-805.0431909526435
 30
0.0
 11
226.1930661136248
 21
-805.0504507333915
 31
0.0
  0
LINE
  5
431
  8
VISIBLE
 10
226.1930661136248
 20
-805.0504507333915
 30
0.0
 11
226.2245702053281
 21
-805.0584234899991
 31
0.0
  0
LINE
  5
432
  8
VISIBLE
 10
226.2245702053281
 20
-805.0584234899991
 30
0.0
 11
226.2557600836958
 21
-805.0670994597223
 31
0.0
  0
LINE
  5
433
  8
VISIBLE
 10
226.2557600836958
 20
-805.0670994597223
 30
0.0
 11
226.2866252856293
 21
-805.076468879817
 31
0.0
  0
LINE
  5
434
  8
VISIBLE
 10
226.2866252856293
 20
-805.076468879817
 30
0.0
 11
226.3171553480299
 21
-805.0865219875388
 31
0.0
  0
LINE
  5
435
  8
VISIBLE
 10
226.3171553480299
 20
-805.0865219875388
 30
0.0
 11
226.347339807799
 21
-805.0972490201441
 31
0.0
  0
LINE
  5
436
  8
VISIBLE
 10
226.347339807799
 20
-805.0972490201441
 30
0.0
 11
226.3771682018378
 21
-805.1086402148883
 31
0.0
  0
LINE
  5
437
  8
VISIBLE
 10
226.3771682018378
 20
-805.1086402148883
 30
0.0
 11
226.4066300670477
 21
-805.1206858090275
 31
0.0
  0
LINE
  5
438
  8
VISIBLE
 10
226.4066300670477
 20
-805.1206858090275
 30
0.0
 11
226.4357149403299
 21
-805.1333760398176
 31
0.0
  0
LINE
  5
439
  8
VISIBLE
 10
226.4357149403299
 20
-805.1333760398176
 30
0.0
 11
226.4644123585858
 21
-805.1467011445145
 31
0.0
  0
LINE
  5
43A
  8
VISIBLE
 10
226.4644123585858
 20
-805.1467011445145
 30
0.0
 11
226.4927118587168
 21
-805.160651360374
 31
0.0
  0
LINE
  5
43B
  8
VISIBLE
 10
226.4927118587168
 20
-805.160651360374
 30
0.0
 11
226.5206029776241
 21
-805.1752169246522
 31
0.0
  0
LINE
  5
43C
  8
VISIBLE
 10
226.5206029776241
 20
-805.1752169246522
 30
0.0
 11
226.548075252209
 21
-805.1903880746048
 31
0.0
  0
LINE
  5
43D
  8
VISIBLE
 10
226.548075252209
 20
-805.1903880746048
 30
0.0
 11
226.5751182193728
 21
-805.2061550474878
 31
0.0
  0
LINE
  5
43E
  8
VISIBLE
 10
226.5751182193728
 20
-805.2061550474878
 30
0.0
 11
226.601721416017
 21
-805.2225080805567
 31
0.0
  0
LINE
  5
43F
  8
VISIBLE
 10
226.601721416017
 20
-805.2225080805567
 30
0.0
 11
226.6278743790427
 21
-805.2394374110679
 31
0.0
  0
LINE
  5
440
  8
VISIBLE
 10
226.6278743790427
 20
-805.2394374110679
 30
0.0
 11
226.6535666453513
 21
-805.2569332762773
 31
0.0
  0
LINE
  5
441
  8
VISIBLE
 10
226.6535666453513
 20
-805.2569332762773
 30
0.0
 11
226.6787877518441
 21
-805.2749859134403
 31
0.0
  0
LINE
  5
442
  8
VISIBLE
 10
226.6787877518441
 20
-805.2749859134403
 30
0.0
 11
226.7035272354224
 21
-805.2935855598133
 31
0.0
  0
LINE
  5
443
  8
VISIBLE
 10
226.7035272354224
 20
-805.2935855598133
 30
0.0
 11
226.7277746329876
 21
-805.312722452652
 31
0.0
  0
LINE
  5
444
  8
VISIBLE
 10
226.7277746329876
 20
-805.312722452652
 30
0.0
 11
226.7515194814409
 21
-805.332386829212
 31
0.0
  0
LINE
  5
445
  8
VISIBLE
 10
226.7515194814409
 20
-805.332386829212
 30
0.0
 11
226.7747513176838
 21
-805.3525689267499
 31
0.0
  0
LINE
  5
446
  8
VISIBLE
 10
226.7747513176838
 20
-805.3525689267499
 30
0.0
 11
226.7974596786173
 21
-805.3732589825208
 31
0.0
  0
LINE
  5
447
  8
VISIBLE
 10
226.7974596786173
 20
-805.3732589825208
 30
0.0
 11
226.819634101143
 21
-805.394447233781
 31
0.0
  0
LINE
  5
448
  8
VISIBLE
 10
226.819634101143
 20
-805.394447233781
 30
0.0
 11
226.8412641221622
 21
-805.4161239177864
 31
0.0
  0
LINE
  5
449
  8
VISIBLE
 10
226.8412641221622
 20
-805.4161239177864
 30
0.0
 11
226.862339278576
 21
-805.4382792717929
 31
0.0
  0
LINE
  5
44A
  8
VISIBLE
 10
226.862339278576
 20
-805.4382792717929
 30
0.0
 11
226.8828491072859
 21
-805.4609035330564
 31
0.0
  0
LINE
  5
44B
  8
VISIBLE
 10
226.8828491072859
 20
-805.4609035330564
 30
0.0
 11
226.9027831451932
 21
-805.4839869388325
 31
0.0
  0
LINE
  5
44C
  8
VISIBLE
 10
226.9027831451932
 20
-805.4839869388325
 30
0.0
 11
226.9221309291991
 21
-805.5075197263774
 31
0.0
  0
LINE
  5
44D
  8
VISIBLE
 10
226.9221309291991
 20
-805.5075197263774
 30
0.0
 11
226.940881996205
 21
-805.5314921329468
 31
0.0
  0
LINE
  5
44E
  8
VISIBLE
 10
226.940881996205
 20
-805.5314921329468
 30
0.0
 11
226.9590258831122
 21
-805.5558943957967
 31
0.0
  0
LINE
  5
44F
  8
VISIBLE
 10
226.9590258831122
 20
-805.5558943957967
 30
0.0
 11
226.9765521268221
 21
-805.580716752183
 31
0.0
  0
LINE
  5
450
  8
VISIBLE
 10
226.9765521268221
 20
-805.580716752183
 30
0.0
 11
226.9934502642359
 21
-805.6059494393616
 31
0.0
  0
LINE
  5
451
  8
VISIBLE
 10
226.9934502642359
 20
-805.6059494393616
 30
0.0
 11
227.009709832255
 21
-805.6315826945882
 31
0.0
  0
LINE
  5
452
  8
VISIBLE
 10
227.009709832255
 20
-805.6315826945882
 30
0.0
 11
227.0253203677806
 21
-805.657606755119
 31
0.0
  0
LINE
  5
453
  8
VISIBLE
 10
227.0253203677806
 20
-805.657606755119
 30
0.0
 11
227.0402714077141
 21
-805.6840118582097
 31
0.0
  0
LINE
  5
454
  8
VISIBLE
 10
227.0402714077141
 20
-805.6840118582097
 30
0.0
 11
227.0545524889567
 21
-805.7107882411162
 31
0.0
  0
LINE
  5
455
  8
VISIBLE
 10
227.0545524889567
 20
-805.7107882411162
 30
0.0
 11
227.0681531484099
 21
-805.7379261410947
 31
0.0
  0
LINE
  5
456
  8
VISIBLE
 10
227.0681531484099
 20
-805.7379261410947
 30
0.0
 11
227.081062922975
 21
-805.7654157954005
 31
0.0
  0
LINE
  5
457
  8
VISIBLE
 10
227.081062922975
 20
-805.7654157954005
 30
0.0
 11
227.0932713495532
 21
-805.79324744129
 31
0.0
  0
LINE
  5
458
  8
VISIBLE
 10
227.0932713495532
 20
-805.79324744129
 30
0.0
 11
227.1047679650458
 21
-805.8214113160187
 31
0.0
  0
LINE
  5
459
  8
VISIBLE
 10
227.1047679650458
 20
-805.8214113160187
 30
0.0
 11
227.1155423063542
 21
-805.8498976568428
 31
0.0
  0
LINE
  5
45A
  8
VISIBLE
 10
227.1155423063542
 20
-805.8498976568428
 30
0.0
 11
227.1255839103797
 21
-805.8786967010182
 31
0.0
  0
LINE
  5
45B
  8
VISIBLE
 10
227.1255839103797
 20
-805.8786967010182
 30
0.0
 11
227.1348823140236
 21
-805.9077986858006
 31
0.0
  0
LINE
  5
45C
  8
VISIBLE
 10
227.1348823140236
 20
-805.9077986858006
 30
0.0
 11
227.1434270541872
 21
-805.9371938484459
 31
0.0
  0
LINE
  5
45D
  8
VISIBLE
 10
227.1434270541872
 20
-805.9371938484459
 30
0.0
 11
227.1512076677719
 21
-805.9668724262101
 31
0.0
  0
LINE
  5
45E
  8
VISIBLE
 10
227.1512076677719
 20
-805.9668724262101
 30
0.0
 11
227.1582136916789
 21
-805.996824656349
 31
0.0
  0
LINE
  5
45F
  8
VISIBLE
 10
227.1582136916789
 20
-805.996824656349
 30
0.0
 11
227.1644346628095
 21
-806.0270407761186
 31
0.0
  0
LINE
  5
460
  8
VISIBLE
 10
227.1644346628095
 20
-806.0270407761186
 30
0.0
 11
227.1698601180651
 21
-806.0575110227746
 31
0.0
  0
LINE
  5
461
  8
VISIBLE
 10
227.1698601180651
 20
-806.0575110227746
 30
0.0
 11
227.1744795943471
 21
-806.0882256335731
 31
0.0
  0
LINE
  5
462
  8
VISIBLE
 10
227.1744795943471
 20
-806.0882256335731
 30
0.0
 11
227.1782826285566
 21
-806.1191748457699
 31
0.0
  0
LINE
  5
463
  8
VISIBLE
 10
227.1782826285566
 20
-806.1191748457699
 30
0.0
 11
227.1812587575951
 21
-806.1503488966208
 31
0.0
  0
LINE
  5
464
  8
VISIBLE
 10
227.1812587575951
 20
-806.1503488966208
 30
0.0
 11
227.1833975183638
 21
-806.181738023382
 31
0.0
  0
LINE
  5
465
  8
VISIBLE
 10
227.1833975183638
 20
-806.181738023382
 30
0.0
 11
227.1846884477641
 21
-806.2133324633091
 31
0.0
  0
LINE
  5
466
  8
VISIBLE
 10
227.1846884477641
 20
-806.2133324633091
 30
0.0
 11
227.1851210826972
 21
-806.245122453658
 31
0.0
  0
LINE
  5
467
  8
VISIBLE
 10
227.1851210826972
 20
-806.245122453658
 30
0.0
 11
227.1846887050161
 21
-806.276719613047
 31
0.0
  0
LINE
  5
468
  8
VISIBLE
 10
227.1846887050161
 20
-806.276719613047
 30
0.0
 11
227.1833985432326
 21
-806.3081272023469
 31
0.0
  0
LINE
  5
469
  8
VISIBLE
 10
227.1833985432326
 20
-806.3081272023469
 30
0.0
 11
227.1812610542366
 21
-806.3393354588134
 31
0.0
  0
LINE
  5
46A
  8
VISIBLE
 10
227.1812610542366
 20
-806.3393354588134
 30
0.0
 11
227.178286694918
 21
-806.3703346197025
 31
0.0
  0
LINE
  5
46B
  8
VISIBLE
 10
227.178286694918
 20
-806.3703346197025
 30
0.0
 11
227.1744859221666
 21
-806.40111492227
 31
0.0
  0
LINE
  5
46C
  8
VISIBLE
 10
227.1744859221666
 20
-806.40111492227
 30
0.0
 11
227.1698691928723
 21
-806.4316666037721
 31
0.0
  0
LINE
  5
46D
  8
VISIBLE
 10
227.1698691928723
 20
-806.4316666037721
 30
0.0
 11
227.1644469639251
 21
-806.4619799014644
 31
0.0
  0
LINE
  5
46E
  8
VISIBLE
 10
227.1644469639251
 20
-806.4619799014644
 30
0.0
 11
227.1582296922146
 21
-806.4920450526029
 31
0.0
  0
LINE
  5
46F
  8
VISIBLE
 10
227.1582296922146
 20
-806.4920450526029
 30
0.0
 11
227.1512278346309
 21
-806.5218522944433
 31
0.0
  0
LINE
  5
470
  8
VISIBLE
 10
227.1512278346309
 20
-806.5218522944433
 30
0.0
 11
227.1434518480638
 21
-806.5513918642419
 31
0.0
  0
LINE
  5
471
  8
VISIBLE
 10
227.1434518480638
 20
-806.5513918642419
 30
0.0
 11
227.1349121894031
 21
-806.5806539992541
 31
0.0
  0
LINE
  5
472
  8
VISIBLE
 10
227.1349121894031
 20
-806.5806539992541
 30
0.0
 11
227.1256193155387
 21
-806.609628936736
 31
0.0
  0
LINE
  5
473
  8
VISIBLE
 10
227.1256193155387
 20
-806.609628936736
 30
0.0
 11
227.1155836833605
 21
-806.6383069139438
 31
0.0
  0
LINE
  5
474
  8
VISIBLE
 10
227.1155836833605
 20
-806.6383069139438
 30
0.0
 11
227.1048157497584
 21
-806.6666781681329
 31
0.0
  0
LINE
  5
475
  8
VISIBLE
 10
227.1048157497584
 20
-806.6666781681329
 30
0.0
 11
227.0933259716222
 21
-806.6947329365595
 31
0.0
  0
LINE
  5
476
  8
VISIBLE
 10
227.0933259716222
 20
-806.6947329365595
 30
0.0
 11
227.0811248058417
 21
-806.7224614564793
 31
0.0
  0
LINE
  5
477
  8
VISIBLE
 10
227.0811248058417
 20
-806.7224614564793
 30
0.0
 11
227.068222709307
 21
-806.7498539651483
 31
0.0
  0
LINE
  5
478
  8
VISIBLE
 10
227.068222709307
 20
-806.7498539651483
 30
0.0
 11
227.0546301389077
 21
-806.7769006998224
 31
0.0
  0
LINE
  5
479
  8
VISIBLE
 10
227.0546301389077
 20
-806.7769006998224
 30
0.0
 11
227.0403575515338
 21
-806.8035918977574
 31
0.0
  0
LINE
  5
47A
  8
VISIBLE
 10
227.0403575515338
 20
-806.8035918977574
 30
0.0
 11
227.0254154040753
 21
-806.8299177962094
 31
0.0
  0
LINE
  5
47B
  8
VISIBLE
 10
227.0254154040753
 20
-806.8299177962094
 30
0.0
 11
227.0098141534218
 21
-806.8558686324342
 31
0.0
  0
LINE
  5
47C
  8
VISIBLE
 10
227.0098141534218
 20
-806.8558686324342
 30
0.0
 11
226.9935642564633
 21
-806.8814346436875
 31
0.0
  0
LINE
  5
47D
  8
VISIBLE
 10
226.9935642564633
 20
-806.8814346436875
 30
0.0
 11
226.9766761700897
 21
-806.9066060672254
 31
0.0
  0
LINE
  5
47E
  8
VISIBLE
 10
226.9766761700897
 20
-806.9066060672254
 30
0.0
 11
226.9591603511909
 21
-806.9313731403037
 31
0.0
  0
LINE
  5
47F
  8
VISIBLE
 10
226.9591603511909
 20
-806.9313731403037
 30
0.0
 11
226.9410272566566
 21
-806.9557261001783
 31
0.0
  0
LINE
  5
480
  8
VISIBLE
 10
226.9410272566566
 20
-806.9557261001783
 30
0.0
 11
226.9222873433768
 21
-806.979655184105
 31
0.0
  0
LINE
  5
481
  8
VISIBLE
 10
226.9222873433768
 20
-806.979655184105
 30
0.0
 11
226.9029510682412
 21
-807.0031506293399
 31
0.0
  0
LINE
  5
482
  8
VISIBLE
 10
226.9029510682412
 20
-807.0031506293399
 30
0.0
 11
226.88302888814
 21
-807.0262026731389
 31
0.0
  0
LINE
  5
483
  8
VISIBLE
 10
226.88302888814
 20
-807.0262026731389
 30
0.0
 11
226.8625312599628
 21
-807.0488015527576
 31
0.0
  0
LINE
  5
484
  8
VISIBLE
 10
226.8625312599628
 20
-807.0488015527576
 30
0.0
 11
226.8414686405995
 21
-807.0709375054521
 31
0.0
  0
LINE
  5
485
  8
VISIBLE
 10
226.8414686405995
 20
-807.0709375054521
 30
0.0
 11
226.8198514869401
 21
-807.0926007684784
 31
0.0
  0
LINE
  5
486
  8
VISIBLE
 10
226.8198514869401
 20
-807.0926007684784
 30
0.0
 11
226.7976902558743
 21
-807.1137815790921
 31
0.0
  0
LINE
  5
487
  8
VISIBLE
 10
226.7976902558743
 20
-807.1137815790921
 30
0.0
 11
226.774995404292
 21
-807.1344701745494
 31
0.0
  0
LINE
  5
488
  8
VISIBLE
 10
226.774995404292
 20
-807.1344701745494
 30
0.0
 11
226.7517773890832
 21
-807.1546567921059
 31
0.0
  0
LINE
  5
489
  8
VISIBLE
 10
226.7517773890832
 20
-807.1546567921059
 30
0.0
 11
226.7280466671376
 21
-807.1743316690178
 31
0.0
  0
LINE
  5
48A
  8
VISIBLE
 10
226.7280466671376
 20
-807.1743316690178
 30
0.0
 11
226.7038136953452
 21
-807.1934850425406
 31
0.0
  0
LINE
  5
48B
  8
VISIBLE
 10
226.7038136953452
 20
-807.1934850425406
 30
0.0
 11
226.6790889305958
 21
-807.2121071499305
 31
0.0
  0
LINE
  5
48C
  8
VISIBLE
 10
226.6790889305958
 20
-807.2121071499305
 30
0.0
 11
226.6538828297793
 21
-807.2301882284432
 31
0.0
  0
LINE
  5
48D
  8
VISIBLE
 10
226.6538828297793
 20
-807.2301882284432
 30
0.0
 11
226.6282058497855
 21
-807.2477185153349
 31
0.0
  0
LINE
  5
48E
  8
VISIBLE
 10
226.6282058497855
 20
-807.2477185153349
 30
0.0
 11
226.6020684475043
 21
-807.2646882478612
 31
0.0
  0
LINE
  5
48F
  8
VISIBLE
 10
226.6020684475043
 20
-807.2646882478612
 30
0.0
 11
226.5754810798257
 21
-807.281087663278
 31
0.0
  0
LINE
  5
490
  8
VISIBLE
 10
226.5754810798257
 20
-807.281087663278
 30
0.0
 11
226.5484542036394
 21
-807.2969069988412
 31
0.0
  0
LINE
  5
491
  8
VISIBLE
 10
226.5484542036394
 20
-807.2969069988412
 30
0.0
 11
226.5209982758353
 21
-807.3121364918069
 31
0.0
  0
LINE
  5
492
  8
VISIBLE
 10
226.5209982758353
 20
-807.3121364918069
 30
0.0
 11
226.4931237533032
 21
-807.3267663794308
 31
0.0
  0
LINE
  5
493
  8
VISIBLE
 10
226.4931237533032
 20
-807.3267663794308
 30
0.0
 11
226.4648410929331
 21
-807.3407868989688
 31
0.0
  0
LINE
  5
494
  8
VISIBLE
 10
226.4648410929331
 20
-807.3407868989688
 30
0.0
 11
226.4361607516149
 21
-807.3541882876768
 31
0.0
  0
LINE
  5
495
  8
VISIBLE
 10
226.4361607516149
 20
-807.3541882876768
 30
0.0
 11
226.4070931862383
 21
-807.3669607828109
 31
0.0
  0
LINE
  5
496
  8
VISIBLE
 10
226.4070931862383
 20
-807.3669607828109
 30
0.0
 11
226.3776488536933
 21
-807.3790946216268
 31
0.0
  0
LINE
  5
497
  8
VISIBLE
 10
226.3776488536933
 20
-807.3790946216268
 30
0.0
 11
226.3478382108697
 21
-807.3905800413804
 31
0.0
  0
LINE
  5
498
  8
VISIBLE
 10
226.3478382108697
 20
-807.3905800413804
 30
0.0
 11
226.3176717146574
 21
-807.4014072793275
 31
0.0
  0
LINE
  5
499
  8
VISIBLE
 10
226.3176717146574
 20
-807.4014072793275
 30
0.0
 11
226.2871598219463
 21
-807.4115665727239
 31
0.0
  0
LINE
  5
49A
  8
VISIBLE
 10
226.2871598219463
 20
-807.4115665727239
 30
0.0
 11
226.2563129896262
 21
-807.4210481588259
 31
0.0
  0
LINE
  5
49B
  8
VISIBLE
 10
226.2563129896262
 20
-807.4210481588259
 30
0.0
 11
226.225141674587
 21
-807.4298422748892
 31
0.0
  0
LINE
  5
49C
  8
VISIBLE
 10
226.225141674587
 20
-807.4298422748892
 30
0.0
 11
226.1936563337186
 21
-807.4379391581697
 31
0.0
  0
LINE
  5
49D
  8
VISIBLE
 10
226.1936563337186
 20
-807.4379391581697
 30
0.0
 11
226.1618674239108
 21
-807.4453290459231
 31
0.0
  0
LINE
  5
49E
  8
VISIBLE
 10
226.1618674239108
 20
-807.4453290459231
 30
0.0
 11
226.1297854020535
 21
-807.4520021754055
 31
0.0
  0
LINE
  5
49F
  8
VISIBLE
 10
226.1297854020535
 20
-807.4520021754055
 30
0.0
 11
226.0974207250366
 21
-807.4579487838727
 31
0.0
  0
LINE
  5
4A0
  8
VISIBLE
 10
226.0974207250366
 20
-807.4579487838727
 30
0.0
 11
226.0647838497499
 21
-807.4631591085806
 31
0.0
  0
LINE
  5
4A1
  8
VISIBLE
 10
226.0647838497499
 20
-807.4631591085806
 30
0.0
 11
226.0318852330832
 21
-807.4676233867852
 31
0.0
  0
LINE
  5
4A2
  8
VISIBLE
 10
226.0318852330832
 20
-807.4676233867852
 30
0.0
 11
225.9987353319266
 21
-807.4713318557424
 31
0.0
  0
LINE
  5
4A3
  8
VISIBLE
 10
225.9987353319266
 20
-807.4713318557424
 30
0.0
 11
225.9653446031699
 21
-807.4742747527079
 31
0.0
  0
LINE
  5
4A4
  8
VISIBLE
 10
225.9653446031699
 20
-807.4742747527079
 30
0.0
 11
225.9317235037028
 21
-807.4764423149375
 31
0.0
  0
LINE
  5
4A5
  8
VISIBLE
 10
225.9317235037028
 20
-807.4764423149375
 30
0.0
 11
225.8978824904153
 21
-807.4778247796874
 31
0.0
  0
LINE
  5
4A6
  8
VISIBLE
 10
225.8978824904153
 20
-807.4778247796874
 30
0.0
 11
225.8638320201972
 21
-807.4784123842135
 31
0.0
  0
LINE
  5
4A7
  8
VISIBLE
 10
225.8638320201972
 20
-807.4784123842135
 30
0.0
 11
225.8300805441585
 21
-807.4778252148221
 31
0.0
  0
LINE
  5
4A8
  8
VISIBLE
 10
225.8300805441585
 20
-807.4778252148221
 30
0.0
 11
225.7965286946302
 21
-807.4764440476115
 31
0.0
  0
LINE
  5
4A9
  8
VISIBLE
 10
225.7965286946302
 20
-807.4764440476115
 30
0.0
 11
225.7631869129801
 21
-807.474278633529
 31
0.0
  0
LINE
  5
4AA
  8
VISIBLE
 10
225.7631869129801
 20
-807.474278633529
 30
0.0
 11
225.7300656405759
 21
-807.471338723522
 31
0.0
  0
LINE
  5
4AB
  8
VISIBLE
 10
225.7300656405759
 20
-807.471338723522
 30
0.0
 11
225.6971753187856
 21
-807.4676340685378
 31
0.0
  0
LINE
  5
4AC
  8
VISIBLE
 10
225.6971753187856
 20
-807.4676340685378
 30
0.0
 11
225.6645263889768
 21
-807.4631744195237
 31
0.0
  0
LINE
  5
4AD
  8
VISIBLE
 10
225.6645263889768
 20
-807.4631744195237
 30
0.0
 11
225.6321292925176
 21
-807.4579695274274
 31
0.0
  0
LINE
  5
4AE
  8
VISIBLE
 10
225.6321292925176
 20
-807.4579695274274
 30
0.0
 11
225.5999944707757
 21
-807.4520291431959
 31
0.0
  0
LINE
  5
4AF
  8
VISIBLE
 10
225.5999944707757
 20
-807.4520291431959
 30
0.0
 11
225.5681323651189
 21
-807.4453630177766
 31
0.0
  0
LINE
  5
4B0
  8
VISIBLE
 10
225.5681323651189
 20
-807.4453630177766
 30
0.0
 11
225.536553416915
 21
-807.4379809021169
 31
0.0
  0
LINE
  5
4B1
  8
VISIBLE
 10
225.536553416915
 20
-807.4379809021169
 30
0.0
 11
225.5052680675318
 21
-807.4298925471643
 31
0.0
  0
LINE
  5
4B2
  8
VISIBLE
 10
225.5052680675318
 20
-807.4298925471643
 30
0.0
 11
225.4742867583373
 21
-807.421107703866
 31
0.0
  0
LINE
  5
4B3
  8
VISIBLE
 10
225.4742867583373
 20
-807.421107703866
 30
0.0
 11
225.4436199306992
 21
-807.4116361231694
 31
0.0
  0
LINE
  5
4B4
  8
VISIBLE
 10
225.4436199306992
 20
-807.4116361231694
 30
0.0
 11
225.4132780259853
 21
-807.4014875560218
 31
0.0
  0
LINE
  5
4B5
  8
VISIBLE
 10
225.4132780259853
 20
-807.4014875560218
 30
0.0
 11
225.3832714855635
 21
-807.3906717533707
 31
0.0
  0
LINE
  5
4B6
  8
VISIBLE
 10
225.3832714855635
 20
-807.3906717533707
 30
0.0
 11
225.3536107508016
 21
-807.3791984661634
 31
0.0
  0
LINE
  5
4B7
  8
VISIBLE
 10
225.3536107508016
 20
-807.3791984661634
 30
0.0
 11
225.3243062630674
 21
-807.3670774453471
 31
0.0
  0
LINE
  5
4B8
  8
VISIBLE
 10
225.3243062630674
 20
-807.3670774453471
 30
0.0
 11
225.2953684637287
 21
-807.3543184418693
 31
0.0
  0
LINE
  5
4B9
  8
VISIBLE
 10
225.2953684637287
 20
-807.3543184418693
 30
0.0
 11
225.2668077941534
 21
-807.3409312066774
 31
0.0
  0
LINE
  5
4BA
  8
VISIBLE
 10
225.2668077941534
 20
-807.3409312066774
 30
0.0
 11
225.2386346957093
 21
-807.3269254907186
 31
0.0
  0
LINE
  5
4BB
  8
VISIBLE
 10
225.2386346957093
 20
-807.3269254907186
 30
0.0
 11
225.2108596097642
 21
-807.3123110449404
 31
0.0
  0
LINE
  5
4BC
  8
VISIBLE
 10
225.2108596097642
 20
-807.3123110449404
 30
0.0
 11
225.1834929776859
 21
-807.2970976202901
 31
0.0
  0
LINE
  5
4BD
  8
VISIBLE
 10
225.1834929776859
 20
-807.2970976202901
 30
0.0
 11
225.1565452408423
 21
-807.281294967715
 31
0.0
  0
LINE
  5
4BE
  8
VISIBLE
 10
225.1565452408423
 20
-807.281294967715
 30
0.0
 11
225.1300268406012
 21
-807.2649128381626
 31
0.0
  0
LINE
  5
4BF
  8
VISIBLE
 10
225.1300268406012
 20
-807.2649128381626
 30
0.0
 11
225.1039482183305
 21
-807.24796098258
 31
0.0
  0
LINE
  5
4C0
  8
VISIBLE
 10
225.1039482183305
 20
-807.24796098258
 30
0.0
 11
225.0783198153978
 21
-807.2304491519149
 31
0.0
  0
LINE
  5
4C1
  8
VISIBLE
 10
225.0783198153978
 20
-807.2304491519149
 30
0.0
 11
225.0531520731711
 21
-807.2123870971144
 31
0.0
  0
LINE
  5
4C2
  8
VISIBLE
 10
225.0531520731711
 20
-807.2123870971144
 30
0.0
 11
225.0284554330182
 21
-807.1937845691259
 31
0.0
  0
LINE
  5
4C3
  8
VISIBLE
 10
225.0284554330182
 20
-807.1937845691259
 30
0.0
 11
225.0042403363069
 21
-807.1746513188968
 31
0.0
  0
LINE
  5
4C4
  8
VISIBLE
 10
225.0042403363069
 20
-807.1746513188968
 30
0.0
 11
224.9805172244051
 21
-807.1549970973745
 31
0.0
  0
LINE
  5
4C5
  8
VISIBLE
 10
224.9805172244051
 20
-807.1549970973745
 30
0.0
 11
224.9572965386805
 21
-807.1348316555063
 31
0.0
  0
LINE
  5
4C6
  8
VISIBLE
 10
224.9572965386805
 20
-807.1348316555063
 30
0.0
 11
224.934588720501
 21
-807.1141647442396
 31
0.0
  0
LINE
  5
4C7
  8
VISIBLE
 10
224.934588720501
 20
-807.1141647442396
 30
0.0
 11
224.9124042112344
 21
-807.0930061145217
 31
0.0
  0
LINE
  5
4C8
  8
VISIBLE
 10
224.9124042112344
 20
-807.0930061145217
 30
0.0
 11
224.8907534522486
 21
-807.0713655172999
 31
0.0
  0
LINE
  5
4C9
  8
VISIBLE
 10
224.8907534522486
 20
-807.0713655172999
 30
0.0
 11
224.8696468849113
 21
-807.0492527035217
 31
0.0
  0
LINE
  5
4CA
  8
VISIBLE
 10
224.8696468849113
 20
-807.0492527035217
 30
0.0
 11
224.8490949505904
 21
-807.0266774241344
 31
0.0
  0
LINE
  5
4CB
  8
VISIBLE
 10
224.8490949505904
 20
-807.0266774241344
 30
0.0
 11
224.8291080906537
 21
-807.0036494300853
 31
0.0
  0
LINE
  5
4CC
  8
VISIBLE
 10
224.8291080906537
 20
-807.0036494300853
 30
0.0
 11
224.8096967464691
 21
-806.9801784723218
 31
0.0
  0
LINE
  5
4CD
  8
VISIBLE
 10
224.8096967464691
 20
-806.9801784723218
 30
0.0
 11
224.7908713594043
 21
-806.9562743017913
 31
0.0
  0
LINE
  5
4CE
  8
VISIBLE
 10
224.7908713594043
 20
-806.9562743017913
 30
0.0
 11
224.7726423708272
 21
-806.931946669441
 31
0.0
  0
LINE
  5
4CF
  8
VISIBLE
 10
224.7726423708272
 20
-806.931946669441
 30
0.0
 11
224.7550202221056
 21
-806.9072053262184
 31
0.0
  0
LINE
  5
4D0
  8
VISIBLE
 10
224.7550202221056
 20
-806.9072053262184
 30
0.0
 11
224.7380153546074
 21
-806.8820600230708
 31
0.0
  0
LINE
  5
4D1
  8
VISIBLE
 10
224.7380153546074
 20
-806.8820600230708
 30
0.0
 11
224.7216382097003
 21
-806.8565205109458
 31
0.0
  0
LINE
  5
4D2
  8
VISIBLE
 10
224.7216382097003
 20
-806.8565205109458
 30
0.0
 11
224.7058992287522
 21
-806.8305965407903
 31
0.0
  0
LINE
  5
4D3
  8
VISIBLE
 10
224.7058992287522
 20
-806.8305965407903
 30
0.0
 11
224.6908088531309
 21
-806.8042978635519
 31
0.0
  0
LINE
  5
4D4
  8
VISIBLE
 10
224.6908088531309
 20
-806.8042978635519
 30
0.0
 11
224.6763775242043
 21
-806.777634230178
 31
0.0
  0
LINE
  5
4D5
  8
VISIBLE
 10
224.6763775242043
 20
-806.777634230178
 30
0.0
 11
224.6626156833401
 21
-806.750615391616
 31
0.0
  0
LINE
  5
4D6
  8
VISIBLE
 10
224.6626156833401
 20
-806.750615391616
 30
0.0
 11
224.6495337719062
 21
-806.7232510988131
 31
0.0
  0
LINE
  5
4D7
  8
VISIBLE
 10
224.6495337719062
 20
-806.7232510988131
 30
0.0
 11
224.6371422312704
 21
-806.6955511027166
 31
0.0
  0
LINE
  5
4D8
  8
VISIBLE
 10
224.6371422312704
 20
-806.6955511027166
 30
0.0
 11
224.6254515028005
 21
-806.6675251542741
 31
0.0
  0
LINE
  5
4D9
  8
VISIBLE
 10
224.6254515028005
 20
-806.6675251542741
 30
0.0
 11
224.6144720278644
 21
-806.6391830044329
 31
0.0
  0
LINE
  5
4DA
  8
VISIBLE
 10
224.6144720278644
 20
-806.6391830044329
 30
0.0
 11
224.6042142478299
 21
-806.6105344041403
 31
0.0
  0
LINE
  5
4DB
  8
VISIBLE
 10
224.6042142478299
 20
-806.6105344041403
 30
0.0
 11
224.5946886040648
 21
-806.5815891043435
 31
0.0
  0
LINE
  5
4DC
  8
VISIBLE
 10
224.5946886040648
 20
-806.5815891043435
 30
0.0
 11
224.585905537937
 21
-806.55235685599
 31
0.0
  0
LINE
  5
4DD
  8
VISIBLE
 10
224.585905537937
 20
-806.55235685599
 30
0.0
 11
224.5778754908142
 21
-806.5228474100272
 31
0.0
  0
LINE
  5
4DE
  8
VISIBLE
 10
224.5778754908142
 20
-806.5228474100272
 30
0.0
 11
224.5706089040642
 21
-806.4930705174024
 31
0.0
  0
LINE
  5
4DF
  8
VISIBLE
 10
224.5706089040642
 20
-806.4930705174024
 30
0.0
 11
224.5641162190551
 21
-806.463035929063
 31
0.0
  0
LINE
  5
4E0
  8
VISIBLE
 10
224.5641162190551
 20
-806.463035929063
 30
0.0
 11
224.5584078771544
 21
-806.4327533959563
 31
0.0
  0
LINE
  5
4E1
  8
VISIBLE
 10
224.5584078771544
 20
-806.4327533959563
 30
0.0
 11
224.55349431973
 21
-806.4022326690297
 31
0.0
  0
LINE
  5
4E2
  8
VISIBLE
 10
224.55349431973
 20
-806.4022326690297
 30
0.0
 11
224.5493859881499
 21
-806.3714834992305
 31
0.0
  0
LINE
  5
4E3
  8
VISIBLE
 10
224.5493859881499
 20
-806.3714834992305
 30
0.0
 11
224.5460933237818
 21
-806.3405156375061
 31
0.0
  0
LINE
  5
4E4
  8
VISIBLE
 10
224.5460933237818
 20
-806.3405156375061
 30
0.0
 11
224.5436267679935
 21
-806.3093388348038
 31
0.0
  0
LINE
  5
4E5
  8
VISIBLE
 10
224.5436267679935
 20
-806.3093388348038
 30
0.0
 11
224.5419967621529
 21
-806.2779628420711
 31
0.0
  0
LINE
  5
4E6
  8
VISIBLE
 10
224.5419967621529
 20
-806.2779628420711
 30
0.0
 11
224.5412137476278
 21
-806.2463974102552
 31
0.0
  0
LINE
  5
4E7
  8
VISIBLE
 10
224.2374485566555
 20
-808.3165607132066
 30
0.0
 11
224.2455144095095
 21
-808.3452947812824
 31
0.0
  0
LINE
  5
4E8
  8
VISIBLE
 10
224.2455144095095
 20
-808.3452947812824
 30
0.0
 11
224.2789927291545
 21
-808.4601522761134
 31
0.0
  0
LINE
  5
4E9
  8
VISIBLE
 10
224.2789927291545
 20
-808.4601522761134
 30
0.0
 11
224.2908360065029
 21
-808.5065311469185
 31
0.0
  0
LINE
  5
4EA
  8
VISIBLE
 10
224.2908360065029
 20
-808.5065311469185
 30
0.0
 11
224.2964792194637
 21
-808.5309918674379
 31
0.0
  0
LINE
  5
4EB
  8
VISIBLE
 10
224.2964792194637
 20
-808.5309918674379
 30
0.0
 11
224.3018163278042
 21
-808.5562271751512
 31
0.0
  0
LINE
  5
4EC
  8
VISIBLE
 10
224.3018163278042
 20
-808.5562271751512
 30
0.0
 11
224.3067569659159
 21
-808.5821823678959
 31
0.0
  0
LINE
  5
4ED
  8
VISIBLE
 10
224.3067569659159
 20
-808.5821823678959
 30
0.0
 11
224.3112107681902
 21
-808.6088027435093
 31
0.0
  0
LINE
  5
4EE
  8
VISIBLE
 10
224.3112107681902
 20
-808.6088027435093
 30
0.0
 11
224.3150873690187
 21
-808.6360335998285
 31
0.0
  0
LINE
  5
4EF
  8
VISIBLE
 10
224.3150873690187
 20
-808.6360335998285
 30
0.0
 11
224.3182964027927
 21
-808.6638202346909
 31
0.0
  0
LINE
  5
4F0
  8
VISIBLE
 10
224.3182964027927
 20
-808.6638202346909
 30
0.0
 11
224.3207475039037
 21
-808.6921079459337
 31
0.0
  0
LINE
  5
4F1
  8
VISIBLE
 10
224.3207475039037
 20
-808.6921079459337
 30
0.0
 11
224.3223503067433
 21
-808.7208420313942
 31
0.0
  0
LINE
  5
4F2
  8
VISIBLE
 10
224.3223503067433
 20
-808.7208420313942
 30
0.0
 11
224.3230144457028
 21
-808.7499677889095
 31
0.0
  0
LINE
  5
4F3
  8
VISIBLE
 10
224.3230144457028
 20
-808.7499677889095
 30
0.0
 11
224.3229662769749
 21
-808.764660450262
 31
0.0
  0
LINE
  5
4F4
  8
VISIBLE
 10
224.3229662769749
 20
-808.764660450262
 30
0.0
 11
224.3226495551737
 21
-808.7794305163172
 31
0.0
  0
LINE
  5
4F5
  8
VISIBLE
 10
224.3226495551737
 20
-808.7794305163172
 30
0.0
 11
224.3220529845984
 21
-808.7942711493048
 31
0.0
  0
LINE
  5
4F6
  8
VISIBLE
 10
224.3220529845984
 20
-808.7942711493048
 30
0.0
 11
224.3211652695476
 21
-808.8091755114542
 31
0.0
  0
LINE
  5
4F7
  8
VISIBLE
 10
224.3211652695476
 20
-808.8091755114542
 30
0.0
 11
224.3199751143204
 21
-808.8241367649954
 31
0.0
  0
LINE
  5
4F8
  8
VISIBLE
 10
224.3199751143204
 20
-808.8241367649954
 30
0.0
 11
224.3184712232158
 21
-808.839148072158
 31
0.0
  0
LINE
  5
4F9
  8
VISIBLE
 10
224.3184712232158
 20
-808.839148072158
 30
0.0
 11
224.3166423005327
 21
-808.8542025951715
 31
0.0
  0
LINE
  5
4FA
  8
VISIBLE
 10
224.3166423005327
 20
-808.8542025951715
 30
0.0
 11
224.3144770505699
 21
-808.8692934962658
 31
0.0
  0
LINE
  5
4FB
  8
VISIBLE
 10
224.3144770505699
 20
-808.8692934962658
 30
0.0
 11
224.3119641776265
 21
-808.8844139376703
 31
0.0
  0
LINE
  5
4FC
  8
VISIBLE
 10
224.3119641776265
 20
-808.8844139376703
 30
0.0
 11
224.3090923860013
 21
-808.8995570816147
 31
0.0
  0
LINE
  5
4FD
  8
VISIBLE
 10
224.3090923860013
 20
-808.8995570816147
 30
0.0
 11
224.3058503799932
 21
-808.9147160903287
 31
0.0
  0
LINE
  5
4FE
  8
VISIBLE
 10
224.3058503799932
 20
-808.9147160903287
 30
0.0
 11
224.3022268639014
 21
-808.9298841260421
 31
0.0
  0
LINE
  5
4FF
  8
VISIBLE
 10
224.3022268639014
 20
-808.9298841260421
 30
0.0
 11
224.2982105420246
 21
-808.9450543509845
 31
0.0
  0
LINE
  5
500
  8
VISIBLE
 10
224.2982105420246
 20
-808.9450543509845
 30
0.0
 11
224.2937901186618
 21
-808.9602199273852
 31
0.0
  0
LINE
  5
501
  8
VISIBLE
 10
224.2937901186618
 20
-808.9602199273852
 30
0.0
 11
224.2889542981119
 21
-808.9753740174742
 31
0.0
  0
LINE
  5
502
  8
VISIBLE
 10
224.2889542981119
 20
-808.9753740174742
 30
0.0
 11
224.2836917846739
 21
-808.9905097834813
 31
0.0
  0
LINE
  5
503
  8
VISIBLE
 10
224.2836917846739
 20
-808.9905097834813
 30
0.0
 11
224.2779912826466
 21
-809.0056203876359
 31
0.0
  0
LINE
  5
504
  8
VISIBLE
 10
224.2779912826466
 20
-809.0056203876359
 30
0.0
 11
224.2718414963291
 21
-809.0206989921677
 31
0.0
  0
LINE
  5
505
  8
VISIBLE
 10
224.2718414963291
 20
-809.0206989921677
 30
0.0
 11
224.2652311300203
 21
-809.0357387593062
 31
0.0
  0
LINE
  5
506
  8
VISIBLE
 10
224.2652311300203
 20
-809.0357387593062
 30
0.0
 11
224.258148888019
 21
-809.0507328512815
 31
0.0
  0
LINE
  5
507
  8
VISIBLE
 10
224.258148888019
 20
-809.0507328512815
 30
0.0
 11
224.2505834746242
 21
-809.0656744303228
 31
0.0
  0
LINE
  5
508
  8
VISIBLE
 10
224.2505834746242
 20
-809.0656744303228
 30
0.0
 11
224.242523594135
 21
-809.08055665866
 31
0.0
  0
LINE
  5
509
  8
VISIBLE
 10
224.242523594135
 20
-809.08055665866
 30
0.0
 11
224.2339579508501
 21
-809.0953726985227
 31
0.0
  0
LINE
  5
50A
  8
VISIBLE
 10
224.2339579508501
 20
-809.0953726985227
 30
0.0
 11
224.2248752490685
 21
-809.1101157121407
 31
0.0
  0
LINE
  5
50B
  8
VISIBLE
 10
224.2248752490685
 20
-809.1101157121407
 30
0.0
 11
224.2152641930892
 21
-809.1247788617434
 31
0.0
  0
LINE
  5
50C
  8
VISIBLE
 10
224.2152641930892
 20
-809.1247788617434
 30
0.0
 11
224.194819462689
 21
-809.154076148802
 31
0.0
  0
LINE
  5
50D
  8
VISIBLE
 10
224.194819462689
 20
-809.154076148802
 30
0.0
 11
224.1847836591475
 21
-809.1691698467614
 31
0.0
  0
LINE
  5
50E
  8
VISIBLE
 10
224.1847836591475
 20
-809.1691698467614
 30
0.0
 11
224.1750102228346
 21
-809.1846237194461
 31
0.0
  0
LINE
  5
50F
  8
VISIBLE
 10
224.1750102228346
 20
-809.1846237194461
 30
0.0
 11
224.1655032999985
 21
-809.2004250828638
 31
0.0
  0
LINE
  5
510
  8
VISIBLE
 10
224.1655032999985
 20
-809.2004250828638
 30
0.0
 11
224.1562670368872
 21
-809.2165612530218
 31
0.0
  0
LINE
  5
511
  8
VISIBLE
 10
224.1562670368872
 20
-809.2165612530218
 30
0.0
 11
224.147305579749
 21
-809.2330195459274
 31
0.0
  0
LINE
  5
512
  8
VISIBLE
 10
224.147305579749
 20
-809.2330195459274
 30
0.0
 11
224.1386230748318
 21
-809.2497872775882
 31
0.0
  0
LINE
  5
513
  8
VISIBLE
 10
224.1386230748318
 20
-809.2497872775882
 30
0.0
 11
224.1302236683838
 21
-809.2668517640116
 31
0.0
  0
LINE
  5
514
  8
VISIBLE
 10
224.1302236683838
 20
-809.2668517640116
 30
0.0
 11
224.1221115066531
 21
-809.2842003212047
 31
0.0
  0
LINE
  5
515
  8
VISIBLE
 10
224.1221115066531
 20
-809.2842003212047
 30
0.0
 11
224.1142907358877
 21
-809.3018202651754
 31
0.0
  0
LINE
  5
516
  8
VISIBLE
 10
224.1142907358877
 20
-809.3018202651754
 30
0.0
 11
224.1067655023359
 21
-809.3196989119308
 31
0.0
  0
LINE
  5
517
  8
VISIBLE
 10
224.1067655023359
 20
-809.3196989119308
 30
0.0
 11
224.0995399522456
 21
-809.3378235774783
 31
0.0
  0
LINE
  5
518
  8
VISIBLE
 10
224.0995399522456
 20
-809.3378235774783
 30
0.0
 11
224.092618231865
 21
-809.3561815778255
 31
0.0
  0
LINE
  5
519
  8
VISIBLE
 10
224.092618231865
 20
-809.3561815778255
 30
0.0
 11
224.0860044874422
 21
-809.3747602289797
 31
0.0
  0
LINE
  5
51A
  8
VISIBLE
 10
224.0860044874422
 20
-809.3747602289797
 30
0.0
 11
224.0797028652253
 21
-809.3935468469483
 31
0.0
  0
LINE
  5
51B
  8
VISIBLE
 10
224.0797028652253
 20
-809.3935468469483
 30
0.0
 11
224.0737175114624
 21
-809.4125287477389
 31
0.0
  0
LINE
  5
51C
  8
VISIBLE
 10
224.0737175114624
 20
-809.4125287477389
 30
0.0
 11
224.0680525724016
 21
-809.4316932473587
 31
0.0
  0
LINE
  5
51D
  8
VISIBLE
 10
224.0680525724016
 20
-809.4316932473587
 30
0.0
 11
224.062712194291
 21
-809.451027661815
 31
0.0
  0
LINE
  5
51E
  8
VISIBLE
 10
224.062712194291
 20
-809.451027661815
 30
0.0
 11
224.0577005233787
 21
-809.4705193071156
 31
0.0
  0
LINE
  5
51F
  8
VISIBLE
 10
224.0577005233787
 20
-809.4705193071156
 30
0.0
 11
224.0530217059128
 21
-809.4901554992676
 31
0.0
  0
LINE
  5
520
  8
VISIBLE
 10
224.0530217059128
 20
-809.4901554992676
 30
0.0
 11
224.0486798881414
 21
-809.5099235542787
 31
0.0
  0
LINE
  5
521
  8
VISIBLE
 10
224.0486798881414
 20
-809.5099235542787
 30
0.0
 11
224.0446792163126
 21
-809.529810788156
 31
0.0
  0
LINE
  5
522
  8
VISIBLE
 10
224.0446792163126
 20
-809.529810788156
 30
0.0
 11
224.0410238366745
 21
-809.5498045169072
 31
0.0
  0
LINE
  5
523
  8
VISIBLE
 10
224.0410238366745
 20
-809.5498045169072
 30
0.0
 11
224.0377178954753
 21
-809.5698920565394
 31
0.0
  0
LINE
  5
524
  8
VISIBLE
 10
224.0377178954753
 20
-809.5698920565394
 30
0.0
 11
224.0347655389629
 21
-809.5900607230603
 31
0.0
  0
LINE
  5
525
  8
VISIBLE
 10
224.0347655389629
 20
-809.5900607230603
 30
0.0
 11
224.0321709133856
 21
-809.6102978324773
 31
0.0
  0
LINE
  5
526
  8
VISIBLE
 10
224.0321709133856
 20
-809.6102978324773
 30
0.0
 11
224.0299381649914
 21
-809.6305907007975
 31
0.0
  0
LINE
  5
527
  8
VISIBLE
 10
224.0299381649914
 20
-809.6305907007975
 30
0.0
 11
224.0280714400284
 21
-809.6509266440287
 31
0.0
  0
LINE
  5
528
  8
VISIBLE
 10
224.0280714400284
 20
-809.6509266440287
 30
0.0
 11
224.0265748847447
 21
-809.6712929781781
 31
0.0
  0
LINE
  5
529
  8
VISIBLE
 10
224.0265748847447
 20
-809.6712929781781
 30
0.0
 11
224.0254526453885
 21
-809.6916770192532
 31
0.0
  0
LINE
  5
52A
  8
VISIBLE
 10
224.0254526453885
 20
-809.6916770192532
 30
0.0
 11
224.0247088682078
 21
-809.7120660832613
 31
0.0
  0
LINE
  5
52B
  8
VISIBLE
 10
224.0247088682078
 20
-809.7120660832613
 30
0.0
 11
224.0243476994507
 21
-809.73244748621
 31
0.0
  0
LINE
  5
52C
  8
VISIBLE
 10
224.0243476994507
 20
-809.73244748621
 30
0.0
 11
224.0243732853654
 21
-809.7528085441065
 31
0.0
  0
LINE
  5
52D
  8
VISIBLE
 10
224.0243732853654
 20
-809.7528085441065
 30
0.0
 11
224.0247897721998
 21
-809.7731365729585
 31
0.0
  0
LINE
  5
52E
  8
VISIBLE
 10
224.0247897721998
 20
-809.7731365729585
 30
0.0
 11
224.0256013062022
 21
-809.7934188887732
 31
0.0
  0
LINE
  5
52F
  8
VISIBLE
 10
224.0256013062022
 20
-809.7934188887732
 30
0.0
 11
224.0268120336207
 21
-809.813642807558
 31
0.0
  0
LINE
  5
530
  8
VISIBLE
 10
224.0268120336207
 20
-809.813642807558
 30
0.0
 11
224.0284261007033
 21
-809.8337956453205
 31
0.0
  0
LINE
  5
531
  8
VISIBLE
 10
224.0284261007033
 20
-809.8337956453205
 30
0.0
 11
224.0304476536982
 21
-809.8538647180678
 31
0.0
  0
LINE
  5
532
  8
VISIBLE
 10
224.0304476536982
 20
-809.8538647180678
 30
0.0
 11
224.0328808388534
 21
-809.8738373418075
 31
0.0
  0
LINE
  5
533
  8
VISIBLE
 10
224.0328808388534
 20
-809.8738373418075
 30
0.0
 11
224.035729802417
 21
-809.8937008325472
 31
0.0
  0
LINE
  5
534
  8
VISIBLE
 10
224.035729802417
 20
-809.8937008325472
 30
0.0
 11
224.0389986906372
 21
-809.9134425062941
 31
0.0
  0
LINE
  5
535
  8
VISIBLE
 10
224.0389986906372
 20
-809.9134425062941
 30
0.0
 11
224.042691649762
 21
-809.9330496790556
 31
0.0
  0
LINE
  5
536
  8
VISIBLE
 10
224.042691649762
 20
-809.9330496790556
 30
0.0
 11
224.0468128260397
 21
-809.9525096668392
 31
0.0
  0
LINE
  5
537
  8
VISIBLE
 10
224.0468128260397
 20
-809.9525096668392
 30
0.0
 11
224.0513663657181
 21
-809.9718097856523
 31
0.0
  0
LINE
  5
538
  8
VISIBLE
 10
224.0513663657181
 20
-809.9718097856523
 30
0.0
 11
224.0563564150455
 21
-809.9909373515025
 31
0.0
  0
LINE
  5
539
  8
VISIBLE
 10
224.0563564150455
 20
-809.9909373515025
 30
0.0
 11
224.06178712027
 21
-810.0098796803967
 31
0.0
  0
LINE
  5
53A
  8
VISIBLE
 10
224.06178712027
 20
-810.0098796803967
 30
0.0
 11
224.0676626276396
 21
-810.0286240883427
 31
0.0
  0
LINE
  5
53B
  8
VISIBLE
 10
224.0676626276396
 20
-810.0286240883427
 30
0.0
 11
224.0739870834025
 21
-810.0471578913479
 31
0.0
  0
LINE
  5
53C
  8
VISIBLE
 10
224.0739870834025
 20
-810.0471578913479
 30
0.0
 11
224.0807646338068
 21
-810.0654684054196
 31
0.0
  0
LINE
  5
53D
  8
VISIBLE
 10
224.0807646338068
 20
-810.0654684054196
 30
0.0
 11
224.0879994251005
 21
-810.0835429465653
 31
0.0
  0
LINE
  5
53E
  8
VISIBLE
 10
224.0879994251005
 20
-810.0835429465653
 30
0.0
 11
224.0956956035319
 21
-810.1013688307926
 31
0.0
  0
LINE
  5
53F
  8
VISIBLE
 10
224.0956956035319
 20
-810.1013688307926
 30
0.0
 11
224.1038573153488
 21
-810.1189333741085
 31
0.0
  0
LINE
  5
540
  8
VISIBLE
 10
224.1038573153488
 20
-810.1189333741085
 30
0.0
 11
224.1124887067996
 21
-810.1362238925205
 31
0.0
  0
LINE
  5
541
  8
VISIBLE
 10
224.1124887067996
 20
-810.1362238925205
 30
0.0
 11
224.1215939241322
 21
-810.1532277020362
 31
0.0
  0
LINE
  5
542
  8
VISIBLE
 10
224.1215939241322
 20
-810.1532277020362
 30
0.0
 11
224.1311771135949
 21
-810.1699321186632
 31
0.0
  0
LINE
  5
543
  8
VISIBLE
 10
224.1311771135949
 20
-810.1699321186632
 30
0.0
 11
224.1412424214356
 21
-810.1863244584085
 31
0.0
  0
LINE
  5
544
  8
VISIBLE
 10
224.1412424214356
 20
-810.1863244584085
 30
0.0
 11
224.1517939939025
 21
-810.2023920372797
 31
0.0
  0
LINE
  5
545
  8
VISIBLE
 10
224.1517939939025
 20
-810.2023920372797
 30
0.0
 11
224.1628359772436
 21
-810.2181221712842
 31
0.0
  0
LINE
  5
546
  8
VISIBLE
 10
224.1628359772436
 20
-810.2181221712842
 30
0.0
 11
224.1743725177072
 21
-810.2335021764295
 31
0.0
  0
LINE
  5
547
  8
VISIBLE
 10
224.1743725177072
 20
-810.2335021764295
 30
0.0
 11
224.1864077615413
 21
-810.2485193687229
 31
0.0
  0
LINE
  5
548
  8
VISIBLE
 10
224.1864077615413
 20
-810.2485193687229
 30
0.0
 11
224.1989458549939
 21
-810.2631610641718
 31
0.0
  0
LINE
  5
549
  8
VISIBLE
 10
224.1989458549939
 20
-810.2631610641718
 30
0.0
 11
224.2119909443132
 21
-810.2774145787837
 31
0.0
  0
LINE
  5
54A
  8
VISIBLE
 10
224.2119909443132
 20
-810.2774145787837
 30
0.0
 11
224.2255471757474
 21
-810.2912672285659
 31
0.0
  0
LINE
  5
54B
  8
VISIBLE
 10
224.2255471757474
 20
-810.2912672285659
 30
0.0
 11
224.2396186955444
 21
-810.304706329526
 31
0.0
  0
ARC
  5
54C
  8
VISIBLE
 10
226.6611493813229
 20
-811.9153097453335
 30
0.0
 40
0.0027552285751274
 50
320.7845254454738
 51
175.8873232196629
  0
LINE
  5
54D
  8
VISIBLE
 10
223.8987170028361
 20
-806.1260496454981
 30
0.0
 11
221.84058440735
 21
-806.5475041810885
 31
0.0
  0
LINE
  5
54E
  8
VISIBLE
 10
221.84058440735
 20
-806.5475041810885
 30
0.0
 11
223.8891141382528
 21
-806.9633299189356
 31
0.0
  0
LINE
  5
54F
  8
VISIBLE
 10
225.8253934351278
 20
-806.6858640986231
 30
0.0
 11
225.8240913517944
 21
-806.6863930699774
 31
0.0
  0
LINE
  5
550
  8
VISIBLE
 10
224.6509685219333
 20
-809.1842771845606
 30
0.0
 11
224.2374485566555
 21
-808.3165607132066
 31
0.0
  0
LINE
  5
551
  8
VISIBLE
 10
180.4186915757362
 20
-804.3726541367521
 30
0.0
 11
180.4218654038612
 21
-804.3724099961271
 31
0.0
  0
LINE
  5
552
  8
VISIBLE
 10
181.7051227823334
 20
-800.6444097791132
 30
0.0
 11
181.7051227823334
 21
-800.1318501002938
 31
0.0
  0
LINE
  5
553
  8
VISIBLE
 10
178.6178831990001
 20
-801.4846197400507
 30
0.0
 11
178.6191852823334
 21
-801.4840907686965
 31
0.0
  0
ARC
  5
554
  8
VISIBLE
 10
177.7821272528049
 20
-796.2551740933409
 30
0.0
 40
0.0027552285752549
 50
140.7845254384841
 51
355.8873232317076
  0
LINE
  5
555
  8
VISIBLE
 10
180.4218654038612
 20
-804.3724099961271
 30
0.0
 11
180.4218925305973
 21
-804.3712977999465
 31
0.0
  0
LINE
  5
556
  8
VISIBLE
 10
178.6178831990001
 20
-801.4846197400507
 30
0.0
 11
178.6191852823334
 21
-801.4840907686965
 31
0.0
  0
LINE
  5
557
  8
VISIBLE
 10
180.8042167493473
 20
-804.0155306558493
 30
0.0
 11
182.1026922267779
 21
-804.0155306558493
 31
0.0
  0
LINE
  5
558
  8
VISIBLE
 10
182.1026922267779
 20
-804.0155306558493
 30
0.0
 11
182.1026922267779
 21
-803.2864182426549
 31
0.0
  0
LINE
  5
559
  8
VISIBLE
 10
180.5439085896251
 20
-802.6769618624465
 30
0.0
 11
182.6100706990001
 21
-802.6757275959535
 31
0.0
  0
LINE
  5
55A
  8
VISIBLE
 10
178.9186915757362
 20
-796.2563346923076
 30
0.0
 11
178.9186915757362
 21
-795.6853982773771
 31
0.0
  0
ARC
  5
55B
  8
VISIBLE
 10
177.7821272528049
 20
-796.2551740933409
 30
0.0
 40
0.0027552285752549
 50
140.7845254384841
 51
355.8873232317076
  0
ARC
  5
55C
  8
VISIBLE
 10
178.6137999366203
 20
-799.3499283295354
 30
0.0
 40
0.4301616372672649
 50
89.28267512796903
 51
270.5438820998908
  0
LINE
  5
55D
  8
VISIBLE
 10
180.9278604125417
 20
-798.3586024874465
 30
0.0
 11
180.9278604125417
 21
-799.2290451957799
 31
0.0
  0
LINE
  5
55E
  8
VISIBLE
 10
180.9278604125417
 20
-799.2290451957799
 30
0.0
 11
182.292660759764
 21
-799.2290451957799
 31
0.0
  0
LINE
  5
55F
  8
VISIBLE
 10
182.292660759764
 20
-799.2290451957799
 30
0.0
 11
182.292660759764
 21
-798.3586024874465
 31
0.0
  0
LINE
  5
560
  8
VISIBLE
 10
178.1895520358057
 20
-804.961751901509
 30
0.0
 11
178.1905014715696
 21
-804.9552550482103
 31
0.0
  0
ARC
  5
561
  8
VISIBLE
 10
178.146172186172
 20
-805.3477663974772
 30
0.0
 40
0.3950066389912756
 50
83.55645582996696
 51
221.2624632634774
  0
ARC
  5
562
  8
VISIBLE
 10
178.1593120968634
 20
-805.2900904557738
 30
0.0
 40
0.4442779969288284
 50
225.740633911926
 51
273.335004899192
  0
LINE
  5
563
  8
VISIBLE
 10
178.1851575045557
 20
-805.7336160508146
 30
0.0
 11
180.479184197264
 21
-805.7332537201864
 31
0.0
  0
LINE
  5
564
  8
VISIBLE
 10
180.479184197264
 20
-805.7332537201864
 30
0.0
 11
180.7805622354584
 21
-805.6273470620993
 31
0.0
  0
ARC
  5
565
  8
VISIBLE
 10
180.4607710880116
 20
-805.3449190161535
 30
0.0
 40
0.4266520586169723
 50
318.5502149614208
 51
41.9971492014764
  0
LINE
  5
566
  8
VISIBLE
 10
180.7778495618473
 20
-805.0594488416132
 30
0.0
 11
180.4780720010834
 21
-804.9516336289396
 31
0.0
  0
LINE
  5
567
  8
VISIBLE
 10
180.4780720010834
 20
-804.9516336289396
 30
0.0
 11
180.4356729125417
 21
-804.952460994391
 31
0.0
  0
LINE
  5
568
  8
VISIBLE
 10
180.4186915757362
 20
-804.3726541367521
 30
0.0
 11
180.4218654038612
 21
-804.3724099961271
 31
0.0
  0
LINE
  5
569
  8
VISIBLE
 10
178.6178831990001
 20
-798.9203700655715
 30
0.0
 11
178.6191852823334
 21
-798.9198004041132
 31
0.0
  0
ARC
  5
56A
  8
VISIBLE
 10
178.6137865122382
 20
-801.9142051102053
 30
0.0
 40
0.4301482226978
 50
89.28086448702499
 51
270.5456872715328
  0
LINE
  5
56B
  8
VISIBLE
 10
178.6178831990001
 20
-798.9203700655715
 30
0.0
 11
178.6191852823334
 21
-798.9198004041132
 31
0.0
  0
LINE
  5
56C
  8
VISIBLE
 10
177.7737805514307
 20
-796.8212896619257
 30
0.0
 11
179.5435288153196
 21
-796.8205301133146
 31
0.0
  0
LINE
  5
56D
  8
VISIBLE
 10
179.5435288153196
 20
-796.8205301133146
 30
0.0
 11
179.6587089368473
 21
-796.8303228650507
 31
0.0
  0
LINE
  5
56E
  8
VISIBLE
 10
179.6587089368473
 20
-796.8303228650507
 30
0.0
 11
179.864682244139
 21
-796.9237066541132
 31
0.0
  0
ARC
  5
56F
  8
VISIBLE
 10
179.6138229040311
 20
-797.2077832801675
 30
0.0
 40
0.3789854060379994
 50
274.5803589546607
 51
48.55326593365066
  0
LINE
  5
570
  8
VISIBLE
 10
179.6440876260834
 20
-797.5855583251201
 30
0.0
 11
179.5182738240001
 21
-797.5906988416132
 31
0.0
  0
LINE
  5
571
  8
VISIBLE
 10
179.5182738240001
 20
-797.5906988416132
 30
0.0
 11
177.774106072264
 21
-797.5906988416132
 31
0.0
  0
LINE
  5
572
  8
VISIBLE
 10
178.9078408812917
 20
-804.3721794188701
 30
0.0
 11
178.9078408812917
 21
-803.8819586072382
 31
0.0
  0
LINE
  5
573
  8
VISIBLE
 10
180.5445596312917
 20
-802.0444341931757
 30
0.0
 11
182.6026922267779
 21
-801.6229796575853
 31
0.0
  0
LINE
  5
574
  8
VISIBLE
 10
182.6026922267779
 20
-801.6229796575853
 30
0.0
 11
180.5541624958751
 21
-801.2071539197382
 31
0.0
  0
LINE
  5
575
  8
VISIBLE
 10
180.1431110635834
 20
-803.3644347357103
 30
0.0
 11
178.9182846746946
 21
-803.8819586072382
 31
0.0
  0
LINE
  5
576
  8
VISIBLE
 10
178.9182846746946
 20
-803.8819586072382
 30
0.0
 11
178.8759940930973
 21
-803.8131516410924
 31
0.0
  0
LINE
  5
577
  8
VISIBLE
 10
178.8759940930973
 20
-803.8131516410924
 30
0.0
 11
178.7366169229584
 21
-803.6775993407451
 31
0.0
  0
ARC
  5
578
  8
VISIBLE
 10
178.3617946664824
 20
-804.1954501013781
 30
0.0
 40
0.6392660903238904
 50
54.10284436591363
 51
155.8630430118171
  0
LINE
  5
579
  8
VISIBLE
 10
177.7784192233057
 20
-803.9340419405715
 30
0.0
 11
177.7784192233057
 21
-804.3715012504674
 31
0.0
  0
LINE
  5
57A
  8
VISIBLE
 10
177.7784192233057
 20
-804.3715012504674
 30
0.0
 11
180.4186915757362
 21
-804.3726541367521
 31
0.0
  0
LINE
  5
57B
  8
VISIBLE
 10
180.4218654038612
 20
-804.3724099961271
 30
0.0
 11
180.4218925305973
 21
-804.3712977999465
 31
0.0
  0
LINE
  5
57C
  8
VISIBLE
 10
179.7923081121946
 20
-798.9862066541132
 30
0.0
 11
180.2058280774723
 21
-799.8539231254674
 31
0.0
  0
LINE
  5
57D
  8
VISIBLE
 10
179.856381462889
 20
-799.3797749049813
 30
0.0
 11
179.8559576137426
 21
-799.4108726725456
 31
0.0
  0
LINE
  5
57E
  8
VISIBLE
 10
179.8559576137426
 20
-799.4108726725456
 30
0.0
 11
179.8546928988998
 21
-799.4417791358978
 31
0.0
  0
LINE
  5
57F
  8
VISIBLE
 10
179.8546928988998
 20
-799.4417791358978
 30
0.0
 11
179.8525975672549
 21
-799.4724847452567
 31
0.0
  0
LINE
  5
580
  8
VISIBLE
 10
179.8525975672549
 20
-799.4724847452567
 30
0.0
 11
179.8496818677026
 21
-799.5029799508403
 31
0.0
  0
LINE
  5
581
  8
VISIBLE
 10
179.8496818677026
 20
-799.5029799508403
 30
0.0
 11
179.8459560491373
 21
-799.5332552028672
 31
0.0
  0
LINE
  5
582
  8
VISIBLE
 10
179.8459560491373
 20
-799.5332552028672
 30
0.0
 11
179.8414303604534
 21
-799.5633009515554
 31
0.0
  0
LINE
  5
583
  8
VISIBLE
 10
179.8414303604534
 20
-799.5633009515554
 30
0.0
 11
179.8361150505456
 21
-799.5931076471236
 31
0.0
  0
LINE
  5
584
  8
VISIBLE
 10
179.8361150505456
 20
-799.5931076471236
 30
0.0
 11
179.8300203683083
 21
-799.6226657397897
 31
0.0
  0
LINE
  5
585
  8
VISIBLE
 10
179.8300203683083
 20
-799.6226657397897
 30
0.0
 11
179.8231565626359
 21
-799.6519656797723
 31
0.0
  0
LINE
  5
586
  8
VISIBLE
 10
179.8231565626359
 20
-799.6519656797723
 30
0.0
 11
179.815533882423
 21
-799.6809979172895
 31
0.0
  0
LINE
  5
587
  8
VISIBLE
 10
179.815533882423
 20
-799.6809979172895
 30
0.0
 11
179.8071625765641
 21
-799.7097529025599
 31
0.0
  0
LINE
  5
588
  8
VISIBLE
 10
179.8071625765641
 20
-799.7097529025599
 30
0.0
 11
179.7980528939536
 21
-799.7382210858017
 31
0.0
  0
LINE
  5
589
  8
VISIBLE
 10
179.7980528939536
 20
-799.7382210858017
 30
0.0
 11
179.7882150834861
 21
-799.7663929172332
 31
0.0
  0
LINE
  5
58A
  8
VISIBLE
 10
179.7882150834861
 20
-799.7663929172332
 30
0.0
 11
179.7776593940561
 21
-799.7942588470727
 31
0.0
  0
LINE
  5
58B
  8
VISIBLE
 10
179.7776593940561
 20
-799.7942588470727
 30
0.0
 11
179.7663960745579
 21
-799.8218093255387
 31
0.0
  0
LINE
  5
58C
  8
VISIBLE
 10
179.7663960745579
 20
-799.8218093255387
 30
0.0
 11
179.7544353738862
 21
-799.849034802849
 31
0.0
  0
LINE
  5
58D
  8
VISIBLE
 10
179.7544353738862
 20
-799.849034802849
 30
0.0
 11
179.7417875409354
 21
-799.8759257292227
 31
0.0
  0
LINE
  5
58E
  8
VISIBLE
 10
179.7417875409354
 20
-799.8759257292227
 30
0.0
 11
179.7284628246001
 21
-799.9024725548772
 31
0.0
  0
LINE
  5
58F
  8
VISIBLE
 10
179.7284628246001
 20
-799.9024725548772
 30
0.0
 11
179.7144714737746
 21
-799.9286657300318
 31
0.0
  0
LINE
  5
590
  8
VISIBLE
 10
179.7144714737746
 20
-799.9286657300318
 30
0.0
 11
179.6998237373535
 21
-799.9544957049042
 31
0.0
  0
LINE
  5
591
  8
VISIBLE
 10
179.6998237373535
 20
-799.9544957049042
 30
0.0
 11
179.6845298642314
 21
-799.9799529297129
 31
0.0
  0
LINE
  5
592
  8
VISIBLE
 10
179.6845298642314
 20
-799.9799529297129
 30
0.0
 11
179.6686001033026
 21
-800.0050278546761
 31
0.0
  0
LINE
  5
593
  8
VISIBLE
 10
179.6686001033026
 20
-800.0050278546761
 30
0.0
 11
179.6520447034617
 21
-800.0297109300122
 31
0.0
  0
LINE
  5
594
  8
VISIBLE
 10
179.6520447034617
 20
-800.0297109300122
 30
0.0
 11
179.6348739136031
 21
-800.0539926059396
 31
0.0
  0
LINE
  5
595
  8
VISIBLE
 10
179.6348739136031
 20
-800.0539926059396
 30
0.0
 11
179.6170979826215
 21
-800.0778633326765
 31
0.0
  0
LINE
  5
596
  8
VISIBLE
 10
179.6170979826215
 20
-800.0778633326765
 30
0.0
 11
179.5987271594111
 21
-800.1013135604412
 31
0.0
  0
LINE
  5
597
  8
VISIBLE
 10
179.5987271594111
 20
-800.1013135604412
 30
0.0
 11
179.5797716928667
 21
-800.1243337394521
 31
0.0
  0
LINE
  5
598
  8
VISIBLE
 10
179.5797716928667
 20
-800.1243337394521
 30
0.0
 11
179.5602418318825
 21
-800.1469143199275
 31
0.0
  0
LINE
  5
599
  8
VISIBLE
 10
179.5602418318825
 20
-800.1469143199275
 30
0.0
 11
179.5401478253533
 21
-800.1690457520858
 31
0.0
  0
LINE
  5
59A
  8
VISIBLE
 10
179.5401478253533
 20
-800.1690457520858
 30
0.0
 11
179.5194999221733
 21
-800.1907184861452
 31
0.0
  0
LINE
  5
59B
  8
VISIBLE
 10
179.5194999221733
 20
-800.1907184861452
 30
0.0
 11
179.4983083712372
 21
-800.211922972324
 31
0.0
  0
LINE
  5
59C
  8
VISIBLE
 10
179.4983083712372
 20
-800.211922972324
 30
0.0
 11
179.4765834214394
 21
-800.2326496608406
 31
0.0
  0
LINE
  5
59D
  8
VISIBLE
 10
179.4765834214394
 20
-800.2326496608406
 30
0.0
 11
179.4543353216744
 21
-800.2528890019134
 31
0.0
  0
LINE
  5
59E
  8
VISIBLE
 10
179.4543353216744
 20
-800.2528890019134
 30
0.0
 11
179.4315743208367
 21
-800.2726314457605
 31
0.0
  0
LINE
  5
59F
  8
VISIBLE
 10
179.4315743208367
 20
-800.2726314457605
 30
0.0
 11
179.4083106678207
 21
-800.2918674426003
 31
0.0
  0
LINE
  5
5A0
  8
VISIBLE
 10
179.4083106678207
 20
-800.2918674426003
 30
0.0
 11
179.3845546115211
 21
-800.3105874426512
 31
0.0
  0
LINE
  5
5A1
  8
VISIBLE
 10
179.3845546115211
 20
-800.3105874426512
 30
0.0
 11
179.3603164008322
 21
-800.3287818961317
 31
0.0
  0
LINE
  5
5A2
  8
VISIBLE
 10
179.3603164008322
 20
-800.3287818961317
 30
0.0
 11
179.3356062846486
 21
-800.3464412532596
 31
0.0
  0
LINE
  5
5A3
  8
VISIBLE
 10
179.3356062846486
 20
-800.3464412532596
 30
0.0
 11
179.3104345118648
 21
-800.3635559642537
 31
0.0
  0
LINE
  5
5A4
  8
VISIBLE
 10
179.3104345118648
 20
-800.3635559642537
 30
0.0
 11
179.2848113313752
 21
-800.3801164793322
 31
0.0
  0
LINE
  5
5A5
  8
VISIBLE
 10
179.2848113313752
 20
-800.3801164793322
 30
0.0
 11
179.2587469920744
 21
-800.3961132487132
 31
0.0
  0
LINE
  5
5A6
  8
VISIBLE
 10
179.2587469920744
 20
-800.3961132487132
 30
0.0
 11
179.2322517428568
 21
-800.4115367226152
 31
0.0
  0
LINE
  5
5A7
  8
VISIBLE
 10
179.2322517428568
 20
-800.4115367226152
 30
0.0
 11
179.2053358326169
 21
-800.4263773512566
 31
0.0
  0
LINE
  5
5A8
  8
VISIBLE
 10
179.2053358326169
 20
-800.4263773512566
 30
0.0
 11
179.1780095102493
 21
-800.4406255848555
 31
0.0
  0
LINE
  5
5A9
  8
VISIBLE
 10
179.1780095102493
 20
-800.4406255848555
 30
0.0
 11
179.1502830246484
 21
-800.4542718736305
 31
0.0
  0
LINE
  5
5AA
  8
VISIBLE
 10
179.1502830246484
 20
-800.4542718736305
 30
0.0
 11
179.1221666247087
 21
-800.4673066677997
 31
0.0
  0
LINE
  5
5AB
  8
VISIBLE
 10
179.1221666247087
 20
-800.4673066677997
 30
0.0
 11
179.0936705593247
 21
-800.4797204175815
 31
0.0
  0
LINE
  5
5AC
  8
VISIBLE
 10
179.0936705593247
 20
-800.4797204175815
 30
0.0
 11
179.0648050773909
 21
-800.491503573194
 31
0.0
  0
LINE
  5
5AD
  8
VISIBLE
 10
179.0648050773909
 20
-800.491503573194
 30
0.0
 11
179.0355804278018
 21
-800.5026465848559
 31
0.0
  0
LINE
  5
5AE
  8
VISIBLE
 10
179.0355804278018
 20
-800.5026465848559
 30
0.0
 11
179.0060068594519
 21
-800.5131399027853
 31
0.0
  0
LINE
  5
5AF
  8
VISIBLE
 10
179.0060068594519
 20
-800.5131399027853
 30
0.0
 11
178.9760946212357
 21
-800.5229739772005
 31
0.0
  0
LINE
  5
5B0
  8
VISIBLE
 10
178.9760946212357
 20
-800.5229739772005
 30
0.0
 11
178.9458539620476
 21
-800.5321392583201
 31
0.0
  0
LINE
  5
5B1
  8
VISIBLE
 10
178.9458539620476
 20
-800.5321392583201
 30
0.0
 11
178.9152951307822
 21
-800.5406261963619
 31
0.0
  0
LINE
  5
5B2
  8
VISIBLE
 10
178.9152951307822
 20
-800.5406261963619
 30
0.0
 11
178.884428376334
 21
-800.5484252415447
 31
0.0
  0
LINE
  5
5B3
  8
VISIBLE
 10
178.884428376334
 20
-800.5484252415447
 30
0.0
 11
178.8532639475974
 21
-800.5555268440867
 31
0.0
  0
LINE
  5
5B4
  8
VISIBLE
 10
178.8532639475974
 20
-800.5555268440867
 30
0.0
 11
178.8218120934669
 21
-800.5619214542061
 31
0.0
  0
LINE
  5
5B5
  8
VISIBLE
 10
178.8218120934669
 20
-800.5619214542061
 30
0.0
 11
178.7900830628371
 21
-800.5675995221213
 31
0.0
  0
LINE
  5
5B6
  8
VISIBLE
 10
178.7900830628371
 20
-800.5675995221213
 30
0.0
 11
178.7580871046025
 21
-800.5725514980504
 31
0.0
  0
LINE
  5
5B7
  8
VISIBLE
 10
178.7580871046025
 20
-800.5725514980504
 30
0.0
 11
178.7258344676573
 21
-800.5767678322122
 31
0.0
  0
LINE
  5
5B8
  8
VISIBLE
 10
178.7258344676573
 20
-800.5767678322122
 30
0.0
 11
178.6933354008964
 21
-800.5802389748245
 31
0.0
  0
LINE
  5
5B9
  8
VISIBLE
 10
178.6933354008964
 20
-800.5802389748245
 30
0.0
 11
178.660600153214
 21
-800.5829553761059
 31
0.0
  0
LINE
  5
5BA
  8
VISIBLE
 10
178.660600153214
 20
-800.5829553761059
 30
0.0
 11
178.6276389735047
 21
-800.5849074862747
 31
0.0
  0
LINE
  5
5BB
  8
VISIBLE
 10
178.6276389735047
 20
-800.5849074862747
 30
0.0
 11
178.594462110663
 21
-800.5860857555493
 31
0.0
  0
LINE
  5
5BC
  8
VISIBLE
 10
178.594462110663
 20
-800.5860857555493
 30
0.0
 11
178.5610798135834
 21
-800.5864806341478
 31
0.0
  0
LINE
  5
5BD
  8
VISIBLE
 10
178.5610798135834
 20
-800.5864806341478
 30
0.0
 11
178.527599869505
 21
-800.5860857555493
 31
0.0
  0
LINE
  5
5BE
  8
VISIBLE
 10
178.527599869505
 20
-800.5860857555493
 30
0.0
 11
178.494325907903
 21
-800.5849074862747
 31
0.0
  0
LINE
  5
5BF
  8
VISIBLE
 10
178.494325907903
 20
-800.5849074862747
 30
0.0
 11
178.4612682093369
 21
-800.5829553761059
 31
0.0
  0
LINE
  5
5C0
  8
VISIBLE
 10
178.4612682093369
 20
-800.5829553761059
 30
0.0
 11
178.4284370543663
 21
-800.5802389748245
 31
0.0
  0
LINE
  5
5C1
  8
VISIBLE
 10
178.4284370543663
 20
-800.5802389748245
 30
0.0
 11
178.3958427235505
 21
-800.5767678322122
 31
0.0
  0
LINE
  5
5C2
  8
VISIBLE
 10
178.3958427235505
 20
-800.5767678322122
 30
0.0
 11
178.363495497449
 21
-800.5725514980504
 31
0.0
  0
LINE
  5
5C3
  8
VISIBLE
 10
178.363495497449
 20
-800.5725514980504
 30
0.0
 11
178.3314056566213
 21
-800.5675995221213
 31
0.0
  0
LINE
  5
5C4
  8
VISIBLE
 10
178.3314056566213
 20
-800.5675995221213
 30
0.0
 11
178.2995834816268
 21
-800.5619214542061
 31
0.0
  0
LINE
  5
5C5
  8
VISIBLE
 10
178.2995834816268
 20
-800.5619214542061
 30
0.0
 11
178.268039253025
 21
-800.5555268440867
 31
0.0
  0
LINE
  5
5C6
  8
VISIBLE
 10
178.268039253025
 20
-800.5555268440867
 30
0.0
 11
178.2367832513754
 21
-800.5484252415447
 31
0.0
  0
LINE
  5
5C7
  8
VISIBLE
 10
178.2367832513754
 20
-800.5484252415447
 30
0.0
 11
178.2058257572373
 21
-800.5406261963619
 31
0.0
  0
LINE
  5
5C8
  8
VISIBLE
 10
178.2058257572373
 20
-800.5406261963619
 30
0.0
 11
178.1751770511704
 21
-800.5321392583201
 31
0.0
  0
LINE
  5
5C9
  8
VISIBLE
 10
178.1751770511704
 20
-800.5321392583201
 30
0.0
 11
178.144847413734
 21
-800.5229739772005
 31
0.0
  0
LINE
  5
5CA
  8
VISIBLE
 10
178.144847413734
 20
-800.5229739772005
 30
0.0
 11
178.1148471254876
 21
-800.5131399027853
 31
0.0
  0
LINE
  5
5CB
  8
VISIBLE
 10
178.1148471254876
 20
-800.5131399027853
 30
0.0
 11
178.0851864669906
 21
-800.5026465848559
 31
0.0
  0
LINE
  5
5CC
  8
VISIBLE
 10
178.0851864669906
 20
-800.5026465848559
 30
0.0
 11
178.0558757188026
 21
-800.491503573194
 31
0.0
  0
LINE
  5
5CD
  8
VISIBLE
 10
178.0558757188026
 20
-800.491503573194
 30
0.0
 11
178.0269251614829
 21
-800.4797204175815
 31
0.0
  0
LINE
  5
5CE
  8
VISIBLE
 10
178.0269251614829
 20
-800.4797204175815
 30
0.0
 11
177.9983450755911
 21
-800.4673066677997
 31
0.0
  0
LINE
  5
5CF
  8
VISIBLE
 10
177.9983450755911
 20
-800.4673066677997
 30
0.0
 11
177.9701457416866
 21
-800.4542718736305
 31
0.0
  0
LINE
  5
5D0
  8
VISIBLE
 10
177.9701457416866
 20
-800.4542718736305
 30
0.0
 11
177.9423374403289
 21
-800.4406255848555
 31
0.0
  0
LINE
  5
5D1
  8
VISIBLE
 10
177.9423374403289
 20
-800.4406255848555
 30
0.0
 11
177.9149304520773
 21
-800.4263773512566
 31
0.0
  0
LINE
  5
5D2
  8
VISIBLE
 10
177.9149304520773
 20
-800.4263773512566
 30
0.0
 11
177.8879350574915
 21
-800.4115367226152
 31
0.0
  0
LINE
  5
5D3
  8
VISIBLE
 10
177.8879350574915
 20
-800.4115367226152
 30
0.0
 11
177.8613615371307
 21
-800.3961132487132
 31
0.0
  0
LINE
  5
5D4
  8
VISIBLE
 10
177.8613615371307
 20
-800.3961132487132
 30
0.0
 11
177.8352201715546
 21
-800.3801164793322
 31
0.0
  0
LINE
  5
5D5
  8
VISIBLE
 10
177.8352201715546
 20
-800.3801164793322
 30
0.0
 11
177.8095212413226
 21
-800.3635559642537
 31
0.0
  0
LINE
  5
5D6
  8
VISIBLE
 10
177.8095212413226
 20
-800.3635559642537
 30
0.0
 11
177.784275026994
 21
-800.3464412532596
 31
0.0
  0
LINE
  5
5D7
  8
VISIBLE
 10
177.784275026994
 20
-800.3464412532596
 30
0.0
 11
177.7594918091285
 21
-800.3287818961317
 31
0.0
  0
LINE
  5
5D8
  8
VISIBLE
 10
177.7594918091285
 20
-800.3287818961317
 30
0.0
 11
177.7351818682853
 21
-800.3105874426512
 31
0.0
  0
LINE
  5
5D9
  8
VISIBLE
 10
177.7351818682853
 20
-800.3105874426512
 30
0.0
 11
177.7113554850241
 21
-800.2918674426003
 31
0.0
  0
LINE
  5
5DA
  8
VISIBLE
 10
177.7113554850241
 20
-800.2918674426003
 30
0.0
 11
177.6880229399043
 21
-800.2726314457605
 31
0.0
  0
LINE
  5
5DB
  8
VISIBLE
 10
177.6880229399043
 20
-800.2726314457605
 30
0.0
 11
177.6651945134852
 21
-800.2528890019134
 31
0.0
  0
LINE
  5
5DC
  8
VISIBLE
 10
177.6651945134852
 20
-800.2528890019134
 30
0.0
 11
177.6428804863265
 21
-800.2326496608406
 31
0.0
  0
LINE
  5
5DD
  8
VISIBLE
 10
177.6428804863265
 20
-800.2326496608406
 30
0.0
 11
177.6210911389875
 21
-800.211922972324
 31
0.0
  0
LINE
  5
5DE
  8
VISIBLE
 10
177.6210911389875
 20
-800.211922972324
 30
0.0
 11
177.5998367520277
 21
-800.1907184861452
 31
0.0
  0
LINE
  5
5DF
  8
VISIBLE
 10
177.5998367520277
 20
-800.1907184861452
 30
0.0
 11
177.5791276060065
 21
-800.1690457520858
 31
0.0
  0
LINE
  5
5E0
  8
VISIBLE
 10
177.5791276060065
 20
-800.1690457520858
 30
0.0
 11
177.5589739814835
 21
-800.1469143199275
 31
0.0
  0
LINE
  5
5E1
  8
VISIBLE
 10
177.5589739814835
 20
-800.1469143199275
 30
0.0
 11
177.5393861590181
 21
-800.1243337394521
 31
0.0
  0
LINE
  5
5E2
  8
VISIBLE
 10
177.5393861590181
 20
-800.1243337394521
 30
0.0
 11
177.5203744191697
 21
-800.1013135604412
 31
0.0
  0
LINE
  5
5E3
  8
VISIBLE
 10
177.5203744191697
 20
-800.1013135604412
 30
0.0
 11
177.5019490424978
 21
-800.0778633326765
 31
0.0
  0
LINE
  5
5E4
  8
VISIBLE
 10
177.5019490424978
 20
-800.0778633326765
 30
0.0
 11
177.4841203095619
 21
-800.0539926059396
 31
0.0
  0
LINE
  5
5E5
  8
VISIBLE
 10
177.4841203095619
 20
-800.0539926059396
 30
0.0
 11
177.4668985009214
 21
-800.0297109300122
 31
0.0
  0
LINE
  5
5E6
  8
VISIBLE
 10
177.4668985009214
 20
-800.0297109300122
 30
0.0
 11
177.4502938971358
 21
-800.0050278546761
 31
0.0
  0
LINE
  5
5E7
  8
VISIBLE
 10
177.4502938971358
 20
-800.0050278546761
 30
0.0
 11
177.4343167787645
 21
-799.9799529297129
 31
0.0
  0
LINE
  5
5E8
  8
VISIBLE
 10
177.4343167787645
 20
-799.9799529297129
 30
0.0
 11
177.4189774263671
 21
-799.9544957049042
 31
0.0
  0
LINE
  5
5E9
  8
VISIBLE
 10
177.4189774263671
 20
-799.9544957049042
 30
0.0
 11
177.4042861205029
 21
-799.9286657300318
 31
0.0
  0
LINE
  5
5EA
  8
VISIBLE
 10
177.4042861205029
 20
-799.9286657300318
 30
0.0
 11
177.3902531417314
 21
-799.9024725548772
 31
0.0
  0
LINE
  5
5EB
  8
VISIBLE
 10
177.3902531417314
 20
-799.9024725548772
 30
0.0
 11
177.3768887706121
 21
-799.8759257292227
 31
0.0
  0
LINE
  5
5EC
  8
VISIBLE
 10
177.3768887706121
 20
-799.8759257292227
 30
0.0
 11
177.3642032877045
 21
-799.849034802849
 31
0.0
  0
LINE
  5
5ED
  8
VISIBLE
 10
177.3642032877045
 20
-799.849034802849
 30
0.0
 11
177.352206973568
 21
-799.8218093255387
 31
0.0
  0
LINE
  5
5EE
  8
VISIBLE
 10
177.352206973568
 20
-799.8218093255387
 30
0.0
 11
177.3409101087621
 21
-799.7942588470727
 31
0.0
  0
LINE
  5
5EF
  8
VISIBLE
 10
177.3409101087621
 20
-799.7942588470727
 30
0.0
 11
177.3303229738461
 21
-799.7663929172332
 31
0.0
  0
LINE
  5
5F0
  8
VISIBLE
 10
177.3303229738461
 20
-799.7663929172332
 30
0.0
 11
177.3204558493797
 21
-799.7382210858017
 31
0.0
  0
LINE
  5
5F1
  8
VISIBLE
 10
177.3204558493797
 20
-799.7382210858017
 30
0.0
 11
177.3113190159222
 21
-799.7097529025599
 31
0.0
  0
LINE
  5
5F2
  8
VISIBLE
 10
177.3113190159222
 20
-799.7097529025599
 30
0.0
 11
177.3029227540331
 21
-799.6809979172895
 31
0.0
  0
LINE
  5
5F3
  8
VISIBLE
 10
177.3029227540331
 20
-799.6809979172895
 30
0.0
 11
177.2952773442719
 21
-799.6519656797723
 31
0.0
  0
LINE
  5
5F4
  8
VISIBLE
 10
177.2952773442719
 20
-799.6519656797723
 30
0.0
 11
177.2883930671981
 21
-799.6226657397897
 31
0.0
  0
LINE
  5
5F5
  8
VISIBLE
 10
177.2883930671981
 20
-799.6226657397897
 30
0.0
 11
177.282280203371
 21
-799.5931076471236
 31
0.0
  0
LINE
  5
5F6
  8
VISIBLE
 10
177.282280203371
 20
-799.5931076471236
 30
0.0
 11
177.2769490333501
 21
-799.5633009515554
 31
0.0
  0
LINE
  5
5F7
  8
VISIBLE
 10
177.2769490333501
 20
-799.5633009515554
 30
0.0
 11
177.272409837695
 21
-799.5332552028672
 31
0.0
  0
LINE
  5
5F8
  8
VISIBLE
 10
177.272409837695
 20
-799.5332552028672
 30
0.0
 11
177.2686728969651
 21
-799.5029799508403
 31
0.0
  0
LINE
  5
5F9
  8
VISIBLE
 10
177.2686728969651
 20
-799.5029799508403
 30
0.0
 11
177.2657484917198
 21
-799.4724847452567
 31
0.0
  0
LINE
  5
5FA
  8
VISIBLE
 10
177.2657484917198
 20
-799.4724847452567
 30
0.0
 11
177.2636469025185
 21
-799.4417791358978
 31
0.0
  0
LINE
  5
5FB
  8
VISIBLE
 10
177.2636469025185
 20
-799.4417791358978
 30
0.0
 11
177.2623784099209
 21
-799.4108726725456
 31
0.0
  0
LINE
  5
5FC
  8
VISIBLE
 10
177.2623784099209
 20
-799.4108726725456
 30
0.0
 11
177.2619532944862
 21
-799.3797749049813
 31
0.0
  0
LINE
  5
5FD
  8
VISIBLE
 10
177.2619532944862
 20
-799.3797749049813
 30
0.0
 11
177.2623696675959
 21
-799.3477634569379
 31
0.0
  0
LINE
  5
5FE
  8
VISIBLE
 10
177.2623696675959
 20
-799.3477634569379
 30
0.0
 11
177.2636124882868
 21
-799.3159783553597
 31
0.0
  0
LINE
  5
5FF
  8
VISIBLE
 10
177.2636124882868
 20
-799.3159783553597
 30
0.0
 11
177.2656723086018
 21
-799.2844284891002
 31
0.0
  0
LINE
  5
600
  8
VISIBLE
 10
177.2656723086018
 20
-799.2844284891002
 30
0.0
 11
177.268539680584
 21
-799.2531227470123
 31
0.0
  0
LINE
  5
601
  8
VISIBLE
 10
177.268539680584
 20
-799.2531227470123
 30
0.0
 11
177.2722051562762
 21
-799.2220700179491
 31
0.0
  0
LINE
  5
602
  8
VISIBLE
 10
177.2722051562762
 20
-799.2220700179491
 30
0.0
 11
177.2766592877213
 21
-799.1912791907638
 31
0.0
  0
LINE
  5
603
  8
VISIBLE
 10
177.2766592877213
 20
-799.1912791907638
 30
0.0
 11
177.2818926269623
 21
-799.1607591543093
 31
0.0
  0
LINE
  5
604
  8
VISIBLE
 10
177.2818926269623
 20
-799.1607591543093
 30
0.0
 11
177.2878957260421
 21
-799.130518797439
 31
0.0
  0
LINE
  5
605
  8
VISIBLE
 10
177.2878957260421
 20
-799.130518797439
 30
0.0
 11
177.2946591370035
 21
-799.1005670090057
 31
0.0
  0
LINE
  5
606
  8
VISIBLE
 10
177.2946591370035
 20
-799.1005670090057
 30
0.0
 11
177.3021734118896
 21
-799.0709126778625
 31
0.0
  0
LINE
  5
607
  8
VISIBLE
 10
177.3021734118896
 20
-799.0709126778625
 30
0.0
 11
177.3104291027432
 21
-799.0415646928627
 31
0.0
  0
LINE
  5
608
  8
VISIBLE
 10
177.3104291027432
 20
-799.0415646928627
 30
0.0
 11
177.3194167616073
 21
-799.0125319428593
 31
0.0
  0
LINE
  5
609
  8
VISIBLE
 10
177.3194167616073
 20
-799.0125319428593
 30
0.0
 11
177.3291269405248
 21
-798.9838233167053
 31
0.0
  0
LINE
  5
60A
  8
VISIBLE
 10
177.3291269405248
 20
-798.9838233167053
 30
0.0
 11
177.3395501915386
 21
-798.9554477032539
 31
0.0
  0
LINE
  5
60B
  8
VISIBLE
 10
177.3395501915386
 20
-798.9554477032539
 30
0.0
 11
177.3506770666916
 21
-798.9274139913582
 31
0.0
  0
LINE
  5
60C
  8
VISIBLE
 10
177.3506770666916
 20
-798.9274139913582
 30
0.0
 11
177.3624981180268
 21
-798.8997310698711
 31
0.0
  0
LINE
  5
60D
  8
VISIBLE
 10
177.3624981180268
 20
-798.8997310698711
 30
0.0
 11
177.375003897587
 21
-798.8724078276459
 31
0.0
  0
LINE
  5
60E
  8
VISIBLE
 10
177.375003897587
 20
-798.8724078276459
 30
0.0
 11
177.3881849574153
 21
-798.8454531535357
 31
0.0
  0
LINE
  5
60F
  8
VISIBLE
 10
177.3881849574153
 20
-798.8454531535357
 30
0.0
 11
177.4020318495544
 21
-798.8188759363935
 31
0.0
  0
LINE
  5
610
  8
VISIBLE
 10
177.4020318495544
 20
-798.8188759363935
 30
0.0
 11
177.4165351260474
 21
-798.7926850650724
 31
0.0
  0
LINE
  5
611
  8
VISIBLE
 10
177.4165351260474
 20
-798.7926850650724
 30
0.0
 11
177.4316853389371
 21
-798.7668894284255
 31
0.0
  0
LINE
  5
612
  8
VISIBLE
 10
177.4316853389371
 20
-798.7668894284255
 30
0.0
 11
177.4474730402666
 21
-798.741497915306
 31
0.0
  0
LINE
  5
613
  8
VISIBLE
 10
177.4474730402666
 20
-798.741497915306
 30
0.0
 11
177.4638887820786
 21
-798.7165194145668
 31
0.0
  0
LINE
  5
614
  8
VISIBLE
 10
177.4638887820786
 20
-798.7165194145668
 30
0.0
 11
177.4809231164161
 21
-798.6919628150613
 31
0.0
  0
LINE
  5
615
  8
VISIBLE
 10
177.4809231164161
 20
-798.6919628150613
 30
0.0
 11
177.4985665953221
 21
-798.6678370056422
 31
0.0
  0
LINE
  5
616
  8
VISIBLE
 10
177.4985665953221
 20
-798.6678370056422
 30
0.0
 11
177.5168097708395
 21
-798.6441508751628
 31
0.0
  0
LINE
  5
617
  8
VISIBLE
 10
177.5168097708395
 20
-798.6441508751628
 30
0.0
 11
177.5356431950111
 21
-798.6209133124761
 31
0.0
  0
LINE
  5
618
  8
VISIBLE
 10
177.5356431950111
 20
-798.6209133124761
 30
0.0
 11
177.55505741988
 21
-798.5981332064354
 31
0.0
  0
LINE
  5
619
  8
VISIBLE
 10
177.55505741988
 20
-798.5981332064354
 30
0.0
 11
177.5750429974889
 21
-798.5758194458936
 31
0.0
  0
LINE
  5
61A
  8
VISIBLE
 10
177.5750429974889
 20
-798.5758194458936
 30
0.0
 11
177.595590479881
 21
-798.5539809197039
 31
0.0
  0
LINE
  5
61B
  8
VISIBLE
 10
177.595590479881
 20
-798.5539809197039
 30
0.0
 11
177.616690419099
 21
-798.5326265167192
 31
0.0
  0
LINE
  5
61C
  8
VISIBLE
 10
177.616690419099
 20
-798.5326265167192
 30
0.0
 11
177.6383333671859
 21
-798.5117651257929
 31
0.0
  0
LINE
  5
61D
  8
VISIBLE
 10
177.6383333671859
 20
-798.5117651257929
 30
0.0
 11
177.6605098761846
 21
-798.4914056357779
 31
0.0
  0
LINE
  5
61E
  8
VISIBLE
 10
177.6605098761846
 20
-798.4914056357779
 30
0.0
 11
177.683210498138
 21
-798.4715569355272
 31
0.0
  0
LINE
  5
61F
  8
VISIBLE
 10
177.683210498138
 20
-798.4715569355272
 30
0.0
 11
177.7064257850891
 21
-798.4522279138941
 31
0.0
  0
LINE
  5
620
  8
VISIBLE
 10
177.7064257850891
 20
-798.4522279138941
 30
0.0
 11
177.7301462890808
 21
-798.4334274597317
 31
0.0
  0
LINE
  5
621
  8
VISIBLE
 10
177.7301462890808
 20
-798.4334274597317
 30
0.0
 11
177.754362562156
 21
-798.4151644618929
 31
0.0
  0
LINE
  5
622
  8
VISIBLE
 10
177.754362562156
 20
-798.4151644618929
 30
0.0
 11
177.7790651563575
 21
-798.3974478092309
 31
0.0
  0
LINE
  5
623
  8
VISIBLE
 10
177.7790651563575
 20
-798.3974478092309
 30
0.0
 11
177.8042446237285
 21
-798.3802863905988
 31
0.0
  0
LINE
  5
624
  8
VISIBLE
 10
177.8042446237285
 20
-798.3802863905988
 30
0.0
 11
177.8298915163117
 21
-798.3636890948497
 31
0.0
  0
LINE
  5
625
  8
VISIBLE
 10
177.8298915163117
 20
-798.3636890948497
 30
0.0
 11
177.8559963861501
 21
-798.3476648108367
 31
0.0
  0
LINE
  5
626
  8
VISIBLE
 10
177.8559963861501
 20
-798.3476648108367
 30
0.0
 11
177.8825497852866
 21
-798.3322224274128
 31
0.0
  0
LINE
  5
627
  8
VISIBLE
 10
177.8825497852866
 20
-798.3322224274128
 30
0.0
 11
177.9095422657641
 21
-798.3173708334311
 31
0.0
  0
LINE
  5
628
  8
VISIBLE
 10
177.9095422657641
 20
-798.3173708334311
 30
0.0
 11
177.9369643796256
 21
-798.303118917745
 31
0.0
  0
LINE
  5
629
  8
VISIBLE
 10
177.9369643796256
 20
-798.303118917745
 30
0.0
 11
177.9648066789139
 21
-798.2894755692073
 31
0.0
  0
LINE
  5
62A
  8
VISIBLE
 10
177.9648066789139
 20
-798.2894755692073
 30
0.0
 11
177.9930597156721
 21
-798.2764496766711
 31
0.0
  0
LINE
  5
62B
  8
VISIBLE
 10
177.9930597156721
 20
-798.2764496766711
 30
0.0
 11
178.0217140419429
 21
-798.2640501289894
 31
0.0
  0
LINE
  5
62C
  8
VISIBLE
 10
178.0217140419429
 20
-798.2640501289894
 30
0.0
 11
178.0507602097694
 21
-798.2522858150155
 31
0.0
  0
LINE
  5
62D
  8
VISIBLE
 10
178.0507602097694
 20
-798.2522858150155
 30
0.0
 11
178.0801887711945
 21
-798.2411656236025
 31
0.0
  0
LINE
  5
62E
  8
VISIBLE
 10
178.0801887711945
 20
-798.2411656236025
 30
0.0
 11
178.109990278261
 21
-798.2306984436033
 31
0.0
  0
LINE
  5
62F
  8
VISIBLE
 10
178.109990278261
 20
-798.2306984436033
 30
0.0
 11
178.1401552830119
 21
-798.2208931638711
 31
0.0
  0
LINE
  5
630
  8
VISIBLE
 10
178.1401552830119
 20
-798.2208931638711
 30
0.0
 11
178.1706743374901
 21
-798.211758673259
 31
0.0
  0
LINE
  5
631
  8
VISIBLE
 10
178.1706743374901
 20
-798.211758673259
 30
0.0
 11
178.2015379937386
 21
-798.20330386062
 31
0.0
  0
LINE
  5
632
  8
VISIBLE
 10
178.2015379937386
 20
-798.20330386062
 30
0.0
 11
178.2327368038003
 21
-798.1955376148076
 31
0.0
  0
LINE
  5
633
  8
VISIBLE
 10
178.2327368038003
 20
-798.1955376148076
 30
0.0
 11
178.264261319718
 21
-798.1884688246744
 31
0.0
  0
LINE
  5
634
  8
VISIBLE
 10
178.264261319718
 20
-798.1884688246744
 30
0.0
 11
178.2961020935347
 21
-798.1821063790735
 31
0.0
  0
LINE
  5
635
  8
VISIBLE
 10
178.2961020935347
 20
-798.1821063790735
 30
0.0
 11
178.3282496772934
 21
-798.1764591668583
 31
0.0
  0
LINE
  5
636
  8
VISIBLE
 10
178.3282496772934
 20
-798.1764591668583
 30
0.0
 11
178.3606946230369
 21
-798.1715360768818
 31
0.0
  0
LINE
  5
637
  8
VISIBLE
 10
178.3606946230369
 20
-798.1715360768818
 30
0.0
 11
178.3934274828082
 21
-798.167345997997
 31
0.0
  0
LINE
  5
638
  8
VISIBLE
 10
178.3934274828082
 20
-798.167345997997
 30
0.0
 11
178.4264388086502
 21
-798.1638978190571
 31
0.0
  0
LINE
  5
639
  8
VISIBLE
 10
178.4264388086502
 20
-798.1638978190571
 30
0.0
 11
178.4597191526058
 21
-798.161200428915
 31
0.0
  0
LINE
  5
63A
  8
VISIBLE
 10
178.4597191526058
 20
-798.161200428915
 30
0.0
 11
178.4932590667179
 21
-798.1592627164241
 31
0.0
  0
LINE
  5
63B
  8
VISIBLE
 10
178.4932590667179
 20
-798.1592627164241
 30
0.0
 11
178.5270491030295
 21
-798.1580935704372
 31
0.0
  0
LINE
  5
63C
  8
VISIBLE
 10
178.5270491030295
 20
-798.1580935704372
 30
0.0
 11
178.5610798135834
 21
-798.1577018798076
 31
0.0
  0
LINE
  5
63D
  8
VISIBLE
 10
178.5610798135834
 20
-798.1577018798076
 30
0.0
 11
178.594462110663
 21
-798.1581018042602
 31
0.0
  0
LINE
  5
63E
  8
VISIBLE
 10
178.594462110663
 20
-798.1581018042602
 30
0.0
 11
178.6276389735047
 21
-798.1592951289333
 31
0.0
  0
LINE
  5
63F
  8
VISIBLE
 10
178.6276389735047
 20
-798.1592951289333
 30
0.0
 11
178.660600153214
 21
-798.1612721808001
 31
0.0
  0
LINE
  5
640
  8
VISIBLE
 10
178.660600153214
 20
-798.1612721808001
 30
0.0
 11
178.6933354008964
 21
-798.1640232868343
 31
0.0
  0
LINE
  5
641
  8
VISIBLE
 10
178.6933354008964
 20
-798.1640232868343
 30
0.0
 11
178.7258344676573
 21
-798.167538774009
 31
0.0
  0
LINE
  5
642
  8
VISIBLE
 10
178.7258344676573
 20
-798.167538774009
 30
0.0
 11
178.7580871046025
 21
-798.1718089692974
 31
0.0
  0
LINE
  5
643
  8
VISIBLE
 10
178.7580871046025
 20
-798.1718089692974
 30
0.0
 11
178.7900830628371
 21
-798.1768241996728
 31
0.0
  0
LINE
  5
644
  8
VISIBLE
 10
178.7900830628371
 20
-798.1768241996728
 30
0.0
 11
178.8218120934669
 21
-798.1825747921087
 31
0.0
  0
LINE
  5
645
  8
VISIBLE
 10
178.8218120934669
 20
-798.1825747921087
 30
0.0
 11
178.8532639475974
 21
-798.1890510735782
 31
0.0
  0
LINE
  5
646
  8
VISIBLE
 10
178.8532639475974
 20
-798.1890510735782
 30
0.0
 11
178.884428376334
 21
-798.1962433710546
 31
0.0
  0
LINE
  5
647
  8
VISIBLE
 10
178.884428376334
 20
-798.1962433710546
 30
0.0
 11
178.9152951307822
 21
-798.2041420115113
 31
0.0
  0
LINE
  5
648
  8
VISIBLE
 10
178.9152951307822
 20
-798.2041420115113
 30
0.0
 11
178.9458539620476
 21
-798.2127373219216
 31
0.0
  0
LINE
  5
649
  8
VISIBLE
 10
178.9458539620476
 20
-798.2127373219216
 30
0.0
 11
178.9760946212357
 21
-798.2220196292589
 31
0.0
  0
LINE
  5
64A
  8
VISIBLE
 10
178.9760946212357
 20
-798.2220196292589
 30
0.0
 11
179.0060068594519
 21
-798.231979260496
 31
0.0
  0
LINE
  5
64B
  8
VISIBLE
 10
179.0060068594519
 20
-798.231979260496
 30
0.0
 11
179.0355804278018
 21
-798.2426065426068
 31
0.0
  0
LINE
  5
64C
  8
VISIBLE
 10
179.0355804278018
 20
-798.2426065426068
 30
0.0
 11
179.0648050773909
 21
-798.2538918025643
 31
0.0
  0
LINE
  5
64D
  8
VISIBLE
 10
179.0648050773909
 20
-798.2538918025643
 30
0.0
 11
179.0936705593247
 21
-798.2658253673419
 31
0.0
  0
LINE
  5
64E
  8
VISIBLE
 10
179.0936705593247
 20
-798.2658253673419
 30
0.0
 11
179.1221666247087
 21
-798.2783975639129
 31
0.0
  0
LINE
  5
64F
  8
VISIBLE
 10
179.1221666247087
 20
-798.2783975639129
 30
0.0
 11
179.1502830246484
 21
-798.2915987192505
 31
0.0
  0
LINE
  5
650
  8
VISIBLE
 10
179.1502830246484
 20
-798.2915987192505
 30
0.0
 11
179.1780095102493
 21
-798.305419160328
 31
0.0
  0
LINE
  5
651
  8
VISIBLE
 10
179.1780095102493
 20
-798.305419160328
 30
0.0
 11
179.2053358326169
 21
-798.3198492141189
 31
0.0
  0
LINE
  5
652
  8
VISIBLE
 10
179.2053358326169
 20
-798.3198492141189
 30
0.0
 11
179.2322517428568
 21
-798.3348792075961
 31
0.0
  0
LINE
  5
653
  8
VISIBLE
 10
179.2322517428568
 20
-798.3348792075961
 30
0.0
 11
179.2587469920744
 21
-798.3504994677334
 31
0.0
  0
LINE
  5
654
  8
VISIBLE
 10
179.2587469920744
 20
-798.3504994677334
 30
0.0
 11
179.2848113313752
 21
-798.3667003215037
 31
0.0
  0
LINE
  5
655
  8
VISIBLE
 10
179.2848113313752
 20
-798.3667003215037
 30
0.0
 11
179.3104345118648
 21
-798.3834720958806
 31
0.0
  0
LINE
  5
656
  8
VISIBLE
 10
179.3104345118648
 20
-798.3834720958806
 30
0.0
 11
179.3356062846486
 21
-798.4008051178372
 31
0.0
  0
LINE
  5
657
  8
VISIBLE
 10
179.3356062846486
 20
-798.4008051178372
 30
0.0
 11
179.3603164008322
 21
-798.4186897143468
 31
0.0
  0
LINE
  5
658
  8
VISIBLE
 10
179.3603164008322
 20
-798.4186897143468
 30
0.0
 11
179.3845546115211
 21
-798.4371162123828
 31
0.0
  0
LINE
  5
659
  8
VISIBLE
 10
179.3845546115211
 20
-798.4371162123828
 30
0.0
 11
179.4083106678207
 21
-798.4560749389184
 31
0.0
  0
LINE
  5
65A
  8
VISIBLE
 10
179.4083106678207
 20
-798.4560749389184
 30
0.0
 11
179.4315743208367
 21
-798.475556220927
 31
0.0
  0
LINE
  5
65B
  8
VISIBLE
 10
179.4315743208367
 20
-798.475556220927
 30
0.0
 11
179.4543353216744
 21
-798.495550385382
 31
0.0
  0
LINE
  5
65C
  8
VISIBLE
 10
179.4543353216744
 20
-798.495550385382
 30
0.0
 11
179.4765834214394
 21
-798.5160477592564
 31
0.0
  0
LINE
  5
65D
  8
VISIBLE
 10
179.4765834214394
 20
-798.5160477592564
 30
0.0
 11
179.4983083712372
 21
-798.5370386695236
 31
0.0
  0
LINE
  5
65E
  8
VISIBLE
 10
179.4983083712372
 20
-798.5370386695236
 30
0.0
 11
179.5194999221733
 21
-798.5585134431569
 31
0.0
  0
LINE
  5
65F
  8
VISIBLE
 10
179.5194999221733
 20
-798.5585134431569
 30
0.0
 11
179.5401478253533
 21
-798.5804624071297
 31
0.0
  0
LINE
  5
660
  8
VISIBLE
 10
179.5401478253533
 20
-798.5804624071297
 30
0.0
 11
179.5602418318825
 21
-798.6028758884154
 31
0.0
  0
LINE
  5
661
  8
VISIBLE
 10
179.5602418318825
 20
-798.6028758884154
 30
0.0
 11
179.5797716928667
 21
-798.625744213987
 31
0.0
  0
LINE
  5
662
  8
VISIBLE
 10
179.5797716928667
 20
-798.625744213987
 30
0.0
 11
179.5987271594111
 21
-798.6490577108179
 31
0.0
  0
LINE
  5
663
  8
VISIBLE
 10
179.5987271594111
 20
-798.6490577108179
 30
0.0
 11
179.6170979826215
 21
-798.6728067058816
 31
0.0
  0
LINE
  5
664
  8
VISIBLE
 10
179.6170979826215
 20
-798.6728067058816
 30
0.0
 11
179.6348739136031
 21
-798.6969815261513
 31
0.0
  0
LINE
  5
665
  8
VISIBLE
 10
179.6348739136031
 20
-798.6969815261513
 30
0.0
 11
179.6520447034617
 21
-798.7215724986002
 31
0.0
  0
LINE
  5
666
  8
VISIBLE
 10
179.6520447034617
 20
-798.7215724986002
 30
0.0
 11
179.6686001033026
 21
-798.7465699502015
 31
0.0
  0
LINE
  5
667
  8
VISIBLE
 10
179.6686001033026
 20
-798.7465699502015
 30
0.0
 11
179.6845298642314
 21
-798.7719642079286
 31
0.0
  0
LINE
  5
668
  8
VISIBLE
 10
179.6845298642314
 20
-798.7719642079286
 30
0.0
 11
179.6998237373535
 21
-798.797745598755
 31
0.0
  0
LINE
  5
669
  8
VISIBLE
 10
179.6998237373535
 20
-798.797745598755
 30
0.0
 11
179.7144714737746
 21
-798.8239044496537
 31
0.0
  0
LINE
  5
66A
  8
VISIBLE
 10
179.7144714737746
 20
-798.8239044496537
 30
0.0
 11
179.7284628246001
 21
-798.8504310875983
 31
0.0
  0
LINE
  5
66B
  8
VISIBLE
 10
179.7284628246001
 20
-798.8504310875983
 30
0.0
 11
179.7417875409354
 21
-798.8773158395618
 31
0.0
  0
LINE
  5
66C
  8
VISIBLE
 10
179.7417875409354
 20
-798.8773158395618
 30
0.0
 11
179.7544353738862
 21
-798.9045490325176
 31
0.0
  0
LINE
  5
66D
  8
VISIBLE
 10
179.7544353738862
 20
-798.9045490325176
 30
0.0
 11
179.7663960745579
 21
-798.9321209934391
 31
0.0
  0
LINE
  5
66E
  8
VISIBLE
 10
179.7663960745579
 20
-798.9321209934391
 30
0.0
 11
179.7776593940561
 21
-798.9600220492996
 31
0.0
  0
LINE
  5
66F
  8
VISIBLE
 10
179.7776593940561
 20
-798.9600220492996
 30
0.0
 11
179.7882150834861
 21
-798.9882425270723
 31
0.0
  0
LINE
  5
670
  8
VISIBLE
 10
179.7882150834861
 20
-798.9882425270723
 30
0.0
 11
179.7980528939536
 21
-799.0167727537305
 31
0.0
  0
LINE
  5
671
  8
VISIBLE
 10
179.7980528939536
 20
-799.0167727537305
 30
0.0
 11
179.8071625765641
 21
-799.0456030562475
 31
0.0
  0
LINE
  5
672
  8
VISIBLE
 10
179.8071625765641
 20
-799.0456030562475
 30
0.0
 11
179.815533882423
 21
-799.0747237615967
 31
0.0
  0
LINE
  5
673
  8
VISIBLE
 10
179.815533882423
 20
-799.0747237615967
 30
0.0
 11
179.8231565626359
 21
-799.1041251967513
 31
0.0
  0
LINE
  5
674
  8
VISIBLE
 10
179.8231565626359
 20
-799.1041251967513
 30
0.0
 11
179.8300203683083
 21
-799.1337976886846
 31
0.0
  0
LINE
  5
675
  8
VISIBLE
 10
179.8300203683083
 20
-799.1337976886846
 30
0.0
 11
179.8361150505456
 21
-799.16373156437
 31
0.0
  0
LINE
  5
676
  8
VISIBLE
 10
179.8361150505456
 20
-799.16373156437
 30
0.0
 11
179.8414303604534
 21
-799.1939171507806
 31
0.0
  0
LINE
  5
677
  8
VISIBLE
 10
179.8414303604534
 20
-799.1939171507806
 30
0.0
 11
179.8459560491373
 21
-799.2243447748899
 31
0.0
  0
LINE
  5
678
  8
VISIBLE
 10
179.8459560491373
 20
-799.2243447748899
 30
0.0
 11
179.8496818677026
 21
-799.2550047636712
 31
0.0
  0
LINE
  5
679
  8
VISIBLE
 10
179.8496818677026
 20
-799.2550047636712
 30
0.0
 11
179.8525975672549
 21
-799.2858874440976
 31
0.0
  0
LINE
  5
67A
  8
VISIBLE
 10
179.8525975672549
 20
-799.2858874440976
 30
0.0
 11
179.8546928988998
 21
-799.3169831431426
 31
0.0
  0
LINE
  5
67B
  8
VISIBLE
 10
179.8546928988998
 20
-799.3169831431426
 30
0.0
 11
179.8559576137426
 21
-799.3482821877794
 31
0.0
  0
LINE
  5
67C
  8
VISIBLE
 10
179.8559576137426
 20
-799.3482821877794
 30
0.0
 11
179.856381462889
 21
-799.3797749049813
 31
0.0
  0
LINE
  5
67D
  8
VISIBLE
 10
179.9020628865001
 20
-801.9240864284188
 30
0.0
 11
179.9012798358604
 21
-801.9559481908833
 31
0.0
  0
LINE
  5
67E
  8
VISIBLE
 10
179.9012798358604
 20
-801.9559481908833
 30
0.0
 11
179.8996497361631
 21
-801.9876117495878
 31
0.0
  0
LINE
  5
67F
  8
VISIBLE
 10
179.8996497361631
 20
-801.9876117495878
 30
0.0
 11
179.8971830505071
 21
-802.0190673905277
 31
0.0
  0
LINE
  5
680
  8
VISIBLE
 10
179.8971830505071
 20
-802.0190673905277
 30
0.0
 11
179.8938902419909
 21
-802.0503053996977
 31
0.0
  0
LINE
  5
681
  8
VISIBLE
 10
179.8938902419909
 20
-802.0503053996977
 30
0.0
 11
179.8897817737133
 21
-802.0813160630933
 31
0.0
  0
LINE
  5
682
  8
VISIBLE
 10
179.8897817737133
 20
-802.0813160630933
 30
0.0
 11
179.884868108773
 21
-802.1120896667093
 31
0.0
  0
LINE
  5
683
  8
VISIBLE
 10
179.884868108773
 20
-802.1120896667093
 30
0.0
 11
179.8791597102686
 21
-802.142616496541
 31
0.0
  0
LINE
  5
684
  8
VISIBLE
 10
179.8791597102686
 20
-802.142616496541
 30
0.0
 11
179.8726670412988
 21
-802.1728868385835
 31
0.0
  0
LINE
  5
685
  8
VISIBLE
 10
179.8726670412988
 20
-802.1728868385835
 30
0.0
 11
179.8654005649624
 21
-802.2028909788318
 31
0.0
  0
LINE
  5
686
  8
VISIBLE
 10
179.8654005649624
 20
-802.2028909788318
 30
0.0
 11
179.8573707443579
 21
-802.232619203281
 31
0.0
  0
LINE
  5
687
  8
VISIBLE
 10
179.8573707443579
 20
-802.232619203281
 30
0.0
 11
179.8485880425841
 21
-802.2620617979264
 31
0.0
  0
LINE
  5
688
  8
VISIBLE
 10
179.8485880425841
 20
-802.2620617979264
 30
0.0
 11
179.8390629227397
 21
-802.291209048763
 31
0.0
  0
LINE
  5
689
  8
VISIBLE
 10
179.8390629227397
 20
-802.291209048763
 30
0.0
 11
179.8288058479233
 21
-802.3200512417859
 31
0.0
  0
LINE
  5
68A
  8
VISIBLE
 10
179.8288058479233
 20
-802.3200512417859
 30
0.0
 11
179.8178272812337
 21
-802.34857866299
 31
0.0
  0
LINE
  5
68B
  8
VISIBLE
 10
179.8178272812337
 20
-802.34857866299
 30
0.0
 11
179.8061376857696
 21
-802.3767815983706
 31
0.0
  0
LINE
  5
68C
  8
VISIBLE
 10
179.8061376857696
 20
-802.3767815983706
 30
0.0
 11
179.7937475246295
 21
-802.4046503339229
 31
0.0
  0
LINE
  5
68D
  8
VISIBLE
 10
179.7937475246295
 20
-802.4046503339229
 30
0.0
 11
179.7806672609121
 21
-802.4321751556417
 31
0.0
  0
LINE
  5
68E
  8
VISIBLE
 10
179.7806672609121
 20
-802.4321751556417
 30
0.0
 11
179.7669073577163
 21
-802.4593463495225
 31
0.0
  0
LINE
  5
68F
  8
VISIBLE
 10
179.7669073577163
 20
-802.4593463495225
 30
0.0
 11
179.7524782781406
 21
-802.4861542015602
 31
0.0
  0
LINE
  5
690
  8
VISIBLE
 10
179.7524782781406
 20
-802.4861542015602
 30
0.0
 11
179.7373904852838
 21
-802.51258899775
 31
0.0
  0
LINE
  5
691
  8
VISIBLE
 10
179.7373904852838
 20
-802.51258899775
 30
0.0
 11
179.7216544422445
 21
-802.5386410240868
 31
0.0
  0
LINE
  5
692
  8
VISIBLE
 10
179.7216544422445
 20
-802.5386410240868
 30
0.0
 11
179.7052806121214
 21
-802.5643005665657
 31
0.0
  0
LINE
  5
693
  8
VISIBLE
 10
179.7052806121214
 20
-802.5643005665657
 30
0.0
 11
179.6882794580133
 21
-802.589557911182
 31
0.0
  0
LINE
  5
694
  8
VISIBLE
 10
179.6882794580133
 20
-802.589557911182
 30
0.0
 11
179.6706614430187
 21
-802.6144033439309
 31
0.0
  0
LINE
  5
695
  8
VISIBLE
 10
179.6706614430187
 20
-802.6144033439309
 30
0.0
 11
179.6524370302363
 21
-802.6388271508072
 31
0.0
  0
LINE
  5
696
  8
VISIBLE
 10
179.6524370302363
 20
-802.6388271508072
 30
0.0
 11
179.633616682765
 21
-802.6628196178062
 31
0.0
  0
LINE
  5
697
  8
VISIBLE
 10
179.633616682765
 20
-802.6628196178062
 30
0.0
 11
179.6142108637032
 21
-802.6863710309229
 31
0.0
  0
LINE
  5
698
  8
VISIBLE
 10
179.6142108637032
 20
-802.6863710309229
 30
0.0
 11
179.5942300361499
 21
-802.7094716761526
 31
0.0
  0
LINE
  5
699
  8
VISIBLE
 10
179.5942300361499
 20
-802.7094716761526
 30
0.0
 11
179.5736846632035
 21
-802.7321118394902
 31
0.0
  0
LINE
  5
69A
  8
VISIBLE
 10
179.5736846632035
 20
-802.7321118394902
 30
0.0
 11
179.5525852079628
 21
-802.7542818069309
 31
0.0
  0
LINE
  5
69B
  8
VISIBLE
 10
179.5525852079628
 20
-802.7542818069309
 30
0.0
 11
179.5309421335265
 21
-802.7759718644697
 31
0.0
  0
LINE
  5
69C
  8
VISIBLE
 10
179.5309421335265
 20
-802.7759718644697
 30
0.0
 11
179.5087659029932
 21
-802.7971722981019
 31
0.0
  0
LINE
  5
69D
  8
VISIBLE
 10
179.5087659029932
 20
-802.7971722981019
 30
0.0
 11
179.4860669794617
 21
-802.8178733938225
 31
0.0
  0
LINE
  5
69E
  8
VISIBLE
 10
179.4860669794617
 20
-802.8178733938225
 30
0.0
 11
179.4628558260306
 21
-802.8380654376266
 31
0.0
  0
LINE
  5
69F
  8
VISIBLE
 10
179.4628558260306
 20
-802.8380654376266
 30
0.0
 11
179.4391429057986
 21
-802.8577387155092
 31
0.0
  0
LINE
  5
6A0
  8
VISIBLE
 10
179.4391429057986
 20
-802.8577387155092
 30
0.0
 11
179.4149386818645
 21
-802.8768835134656
 31
0.0
  0
LINE
  5
6A1
  8
VISIBLE
 10
179.4149386818645
 20
-802.8768835134656
 30
0.0
 11
179.3902536173269
 21
-802.8954901174908
 31
0.0
  0
LINE
  5
6A2
  8
VISIBLE
 10
179.3902536173269
 20
-802.8954901174908
 30
0.0
 11
179.3650981752844
 21
-802.9135488135798
 31
0.0
  0
LINE
  5
6A3
  8
VISIBLE
 10
179.3650981752844
 20
-802.9135488135798
 30
0.0
 11
179.3394828188357
 21
-802.931049887728
 31
0.0
  0
LINE
  5
6A4
  8
VISIBLE
 10
179.3394828188357
 20
-802.931049887728
 30
0.0
 11
179.3134180110797
 21
-802.9479836259302
 31
0.0
  0
LINE
  5
6A5
  8
VISIBLE
 10
179.3134180110797
 20
-802.9479836259302
 30
0.0
 11
179.2869142151148
 21
-802.9643403141818
 31
0.0
  0
LINE
  5
6A6
  8
VISIBLE
 10
179.2869142151148
 20
-802.9643403141818
 30
0.0
 11
179.2599818940399
 21
-802.9801102384776
 31
0.0
  0
LINE
  5
6A7
  8
VISIBLE
 10
179.2599818940399
 20
-802.9801102384776
 30
0.0
 11
179.2326315109535
 21
-802.9952836848128
 31
0.0
  0
LINE
  5
6A8
  8
VISIBLE
 10
179.2326315109535
 20
-802.9952836848128
 30
0.0
 11
179.2048735289545
 21
-803.0098509391827
 31
0.0
  0
LINE
  5
6A9
  8
VISIBLE
 10
179.2048735289545
 20
-803.0098509391827
 30
0.0
 11
179.1767184111414
 21
-803.0238022875823
 31
0.0
  0
LINE
  5
6AA
  8
VISIBLE
 10
179.1767184111414
 20
-803.0238022875823
 30
0.0
 11
179.148176620613
 21
-803.0371280160066
 31
0.0
  0
LINE
  5
6AB
  8
VISIBLE
 10
179.148176620613
 20
-803.0371280160066
 30
0.0
 11
179.1192586204679
 21
-803.0498184104508
 31
0.0
  0
LINE
  5
6AC
  8
VISIBLE
 10
179.1192586204679
 20
-803.0498184104508
 30
0.0
 11
179.0899748738048
 21
-803.0618637569099
 31
0.0
  0
LINE
  5
6AD
  8
VISIBLE
 10
179.0899748738048
 20
-803.0618637569099
 30
0.0
 11
179.0603358437224
 21
-803.0732543413792
 31
0.0
  0
LINE
  5
6AE
  8
VISIBLE
 10
179.0603358437224
 20
-803.0732543413792
 30
0.0
 11
179.0303519933195
 21
-803.0839804498536
 31
0.0
  0
LINE
  5
6AF
  8
VISIBLE
 10
179.0303519933195
 20
-803.0839804498536
 30
0.0
 11
179.0000337856946
 21
-803.0940323683283
 31
0.0
  0
LINE
  5
6B0
  8
VISIBLE
 10
179.0000337856946
 20
-803.0940323683283
 30
0.0
 11
178.9693916839465
 21
-803.1034003827986
 31
0.0
  0
LINE
  5
6B1
  8
VISIBLE
 10
178.9693916839465
 20
-803.1034003827986
 30
0.0
 11
178.9384361511738
 21
-803.1120747792593
 31
0.0
  0
LINE
  5
6B2
  8
VISIBLE
 10
178.9384361511738
 20
-803.1120747792593
 30
0.0
 11
178.9071776504753
 21
-803.1200458437056
 31
0.0
  0
LINE
  5
6B3
  8
VISIBLE
 10
178.9071776504753
 20
-803.1200458437056
 30
0.0
 11
178.8756266449495
 21
-803.1273038621326
 31
0.0
  0
LINE
  5
6B4
  8
VISIBLE
 10
178.8756266449495
 20
-803.1273038621326
 30
0.0
 11
178.8437935976953
 21
-803.1338391205354
 31
0.0
  0
LINE
  5
6B5
  8
VISIBLE
 10
178.8437935976953
 20
-803.1338391205354
 30
0.0
 11
178.8116889718113
 21
-803.1396419049092
 31
0.0
  0
LINE
  5
6B6
  8
VISIBLE
 10
178.8116889718113
 20
-803.1396419049092
 30
0.0
 11
178.7793232303961
 21
-803.1447025012491
 31
0.0
  0
LINE
  5
6B7
  8
VISIBLE
 10
178.7793232303961
 20
-803.1447025012491
 30
0.0
 11
178.7467068365485
 21
-803.14901119555
 31
0.0
  0
LINE
  5
6B8
  8
VISIBLE
 10
178.7467068365485
 20
-803.14901119555
 30
0.0
 11
178.7138502533672
 21
-803.1525582738072
 31
0.0
  0
LINE
  5
6B9
  8
VISIBLE
 10
178.7138502533672
 20
-803.1525582738072
 30
0.0
 11
178.6807639439508
 21
-803.1553340220157
 31
0.0
  0
LINE
  5
6BA
  8
VISIBLE
 10
178.6807639439508
 20
-803.1553340220157
 30
0.0
 11
178.6474583713979
 21
-803.1573287261708
 31
0.0
  0
LINE
  5
6BB
  8
VISIBLE
 10
178.6474583713979
 20
-803.1573287261708
 30
0.0
 11
178.6139439988074
 21
-803.1585326722674
 31
0.0
  0
LINE
  5
6BC
  8
VISIBLE
 10
178.6139439988074
 20
-803.1585326722674
 30
0.0
 11
178.5802312892779
 21
-803.1589361463007
 31
0.0
  0
LINE
  5
6BD
  8
VISIBLE
 10
178.5802312892779
 20
-803.1589361463007
 30
0.0
 11
178.5461605346472
 21
-803.1585324717744
 31
0.0
  0
LINE
  5
6BE
  8
VISIBLE
 10
178.5461605346472
 20
-803.1585324717744
 30
0.0
 11
178.5122993623652
 21
-803.1573279566913
 31
0.0
  0
LINE
  5
6BF
  8
VISIBLE
 10
178.5122993623652
 20
-803.1573279566913
 30
0.0
 11
178.4786582355305
 21
-803.1553323637959
 31
0.0
  0
LINE
  5
6C0
  8
VISIBLE
 10
178.4786582355305
 20
-803.1553323637959
 30
0.0
 11
178.4452476172418
 21
-803.152555455832
 31
0.0
  0
LINE
  5
6C1
  8
VISIBLE
 10
178.4452476172418
 20
-803.152555455832
 30
0.0
 11
178.4120779705979
 21
-803.1490069955439
 31
0.0
  0
LINE
  5
6C2
  8
VISIBLE
 10
178.4120779705979
 20
-803.1490069955439
 30
0.0
 11
178.3791597586973
 21
-803.1446967456754
 31
0.0
  0
LINE
  5
6C3
  8
VISIBLE
 10
178.3791597586973
 20
-803.1446967456754
 30
0.0
 11
178.3465034446389
 21
-803.139634468971
 31
0.0
  0
LINE
  5
6C4
  8
VISIBLE
 10
178.3465034446389
 20
-803.139634468971
 30
0.0
 11
178.3141194915213
 21
-803.1338299281747
 31
0.0
  0
LINE
  5
6C5
  8
VISIBLE
 10
178.3141194915213
 20
-803.1338299281747
 30
0.0
 11
178.2820183624431
 21
-803.1272928860303
 31
0.0
  0
LINE
  5
6C6
  8
VISIBLE
 10
178.2820183624431
 20
-803.1272928860303
 30
0.0
 11
178.250210520503
 21
-803.1200331052823
 31
0.0
  0
LINE
  5
6C7
  8
VISIBLE
 10
178.250210520503
 20
-803.1200331052823
 30
0.0
 11
178.2187064287998
 21
-803.1120603486747
 31
0.0
  0
LINE
  5
6C8
  8
VISIBLE
 10
178.2187064287998
 20
-803.1120603486747
 30
0.0
 11
178.1875165504321
 21
-803.1033843789515
 31
0.0
  0
LINE
  5
6C9
  8
VISIBLE
 10
178.1875165504321
 20
-803.1033843789515
 30
0.0
 11
178.1566513484986
 21
-803.0940149588569
 31
0.0
  0
LINE
  5
6CA
  8
VISIBLE
 10
178.1566513484986
 20
-803.0940149588569
 30
0.0
 11
178.1261212860979
 21
-803.083961851135
 31
0.0
  0
LINE
  5
6CB
  8
VISIBLE
 10
178.1261212860979
 20
-803.083961851135
 30
0.0
 11
178.0959368263289
 21
-803.0732348185297
 31
0.0
  0
LINE
  5
6CC
  8
VISIBLE
 10
178.0959368263289
 20
-803.0732348185297
 30
0.0
 11
178.06610843229
 21
-803.0618436237855
 31
0.0
  0
LINE
  5
6CD
  8
VISIBLE
 10
178.06610843229
 20
-803.0618436237855
 30
0.0
 11
178.0366465670802
 21
-803.0497980296464
 31
0.0
  0
LINE
  5
6CE
  8
VISIBLE
 10
178.0366465670802
 20
-803.0497980296464
 30
0.0
 11
178.0075616937979
 21
-803.0371077988563
 31
0.0
  0
LINE
  5
6CF
  8
VISIBLE
 10
178.0075616937979
 20
-803.0371077988563
 30
0.0
 11
177.978864275542
 21
-803.0237826941593
 31
0.0
  0
LINE
  5
6D0
  8
VISIBLE
 10
177.978864275542
 20
-803.0237826941593
 30
0.0
 11
177.9505647754111
 21
-803.0098324782998
 31
0.0
  0
LINE
  5
6D1
  8
VISIBLE
 10
177.9505647754111
 20
-803.0098324782998
 30
0.0
 11
177.9226736565038
 21
-802.9952669140216
 31
0.0
  0
LINE
  5
6D2
  8
VISIBLE
 10
177.9226736565038
 20
-802.9952669140216
 30
0.0
 11
177.8952013819189
 21
-802.9800957640691
 31
0.0
  0
LINE
  5
6D3
  8
VISIBLE
 10
177.8952013819189
 20
-802.9800957640691
 30
0.0
 11
177.868158414755
 21
-802.9643287911863
 31
0.0
  0
LINE
  5
6D4
  8
VISIBLE
 10
177.868158414755
 20
-802.9643287911863
 30
0.0
 11
177.8415552181109
 21
-802.9479757581171
 31
0.0
  0
LINE
  5
6D5
  8
VISIBLE
 10
177.8415552181109
 20
-802.9479757581171
 30
0.0
 11
177.8154022550852
 21
-802.9310464276059
 31
0.0
  0
LINE
  5
6D6
  8
VISIBLE
 10
177.8154022550852
 20
-802.9310464276059
 30
0.0
 11
177.7897099887766
 21
-802.9135505623965
 31
0.0
  0
LINE
  5
6D7
  8
VISIBLE
 10
177.7897099887766
 20
-802.9135505623965
 30
0.0
 11
177.7644888822838
 21
-802.8954979252335
 31
0.0
  0
LINE
  5
6D8
  8
VISIBLE
 10
177.7644888822838
 20
-802.8954979252335
 30
0.0
 11
177.7397493987054
 21
-802.8768982788605
 31
0.0
  0
LINE
  5
6D9
  8
VISIBLE
 10
177.7397493987054
 20
-802.8768982788605
 30
0.0
 11
177.7155020011403
 21
-802.8577613860218
 31
0.0
  0
LINE
  5
6DA
  8
VISIBLE
 10
177.7155020011403
 20
-802.8577613860218
 30
0.0
 11
177.6917571526869
 21
-802.8380970094618
 31
0.0
  0
LINE
  5
6DB
  8
VISIBLE
 10
177.6917571526869
 20
-802.8380970094618
 30
0.0
 11
177.6685253164441
 21
-802.817914911924
 31
0.0
  0
LINE
  5
6DC
  8
VISIBLE
 10
177.6685253164441
 20
-802.817914911924
 30
0.0
 11
177.6458169555105
 21
-802.7972248561531
 31
0.0
  0
LINE
  5
6DD
  8
VISIBLE
 10
177.6458169555105
 20
-802.7972248561531
 30
0.0
 11
177.6236425329848
 21
-802.7760366048929
 31
0.0
  0
LINE
  5
6DE
  8
VISIBLE
 10
177.6236425329848
 20
-802.7760366048929
 30
0.0
 11
177.6020125119657
 21
-802.7543599208875
 31
0.0
  0
LINE
  5
6DF
  8
VISIBLE
 10
177.6020125119657
 20
-802.7543599208875
 30
0.0
 11
177.5809373555519
 21
-802.7322045668811
 31
0.0
  0
LINE
  5
6E0
  8
VISIBLE
 10
177.5809373555519
 20
-802.7322045668811
 30
0.0
 11
177.560427526842
 21
-802.7095803056177
 31
0.0
  0
LINE
  5
6E1
  8
VISIBLE
 10
177.560427526842
 20
-802.7095803056177
 30
0.0
 11
177.5404934889347
 21
-802.6864968998416
 31
0.0
  0
LINE
  5
6E2
  8
VISIBLE
 10
177.5404934889347
 20
-802.6864968998416
 30
0.0
 11
177.5211457049288
 21
-802.6629641122967
 31
0.0
  0
LINE
  5
6E3
  8
VISIBLE
 10
177.5211457049288
 20
-802.6629641122967
 30
0.0
 11
177.5023946379228
 21
-802.6389917057272
 31
0.0
  0
LINE
  5
6E4
  8
VISIBLE
 10
177.5023946379228
 20
-802.6389917057272
 30
0.0
 11
177.4842507510156
 21
-802.6145894428772
 31
0.0
  0
LINE
  5
6E5
  8
VISIBLE
 10
177.4842507510156
 20
-802.6145894428772
 30
0.0
 11
177.4667245073057
 21
-802.5897670864908
 31
0.0
  0
LINE
  5
6E6
  8
VISIBLE
 10
177.4667245073057
 20
-802.5897670864908
 30
0.0
 11
177.449826369892
 21
-802.5645343993123
 31
0.0
  0
LINE
  5
6E7
  8
VISIBLE
 10
177.449826369892
 20
-802.5645343993123
 30
0.0
 11
177.4335668018729
 21
-802.5389011440856
 31
0.0
  0
LINE
  5
6E8
  8
VISIBLE
 10
177.4335668018729
 20
-802.5389011440856
 30
0.0
 11
177.4179562663473
 21
-802.5128770835548
 31
0.0
  0
LINE
  5
6E9
  8
VISIBLE
 10
177.4179562663473
 20
-802.5128770835548
 30
0.0
 11
177.4030052264138
 21
-802.4864719804641
 31
0.0
  0
LINE
  5
6EA
  8
VISIBLE
 10
177.4030052264138
 20
-802.4864719804641
 30
0.0
 11
177.3887241451711
 21
-802.4596955975576
 31
0.0
  0
LINE
  5
6EB
  8
VISIBLE
 10
177.3887241451711
 20
-802.4596955975576
 30
0.0
 11
177.3751234857179
 21
-802.4325576975791
 31
0.0
  0
LINE
  5
6EC
  8
VISIBLE
 10
177.3751234857179
 20
-802.4325576975791
 30
0.0
 11
177.3622137111529
 21
-802.4050680432733
 31
0.0
  0
LINE
  5
6ED
  8
VISIBLE
 10
177.3622137111529
 20
-802.4050680432733
 30
0.0
 11
177.3500052845747
 21
-802.377236397384
 31
0.0
  0
LINE
  5
6EE
  8
VISIBLE
 10
177.3500052845747
 20
-802.377236397384
 30
0.0
 11
177.338508669082
 21
-802.3490725226552
 31
0.0
  0
LINE
  5
6EF
  8
VISIBLE
 10
177.338508669082
 20
-802.3490725226552
 30
0.0
 11
177.3277343277736
 21
-802.320586181831
 31
0.0
  0
LINE
  5
6F0
  8
VISIBLE
 10
177.3277343277736
 20
-802.320586181831
 30
0.0
 11
177.3176927237482
 21
-802.2917871376558
 31
0.0
  0
LINE
  5
6F1
  8
VISIBLE
 10
177.3176927237482
 20
-802.2917871376558
 30
0.0
 11
177.3083943201043
 21
-802.2626851528735
 31
0.0
  0
LINE
  5
6F2
  8
VISIBLE
 10
177.3083943201043
 20
-802.2626851528735
 30
0.0
 11
177.2998495799406
 21
-802.2332899902282
 31
0.0
  0
LINE
  5
6F3
  8
VISIBLE
 10
177.2998495799406
 20
-802.2332899902282
 30
0.0
 11
177.292068966356
 21
-802.2036114124639
 31
0.0
  0
LINE
  5
6F4
  8
VISIBLE
 10
177.292068966356
 20
-802.2036114124639
 30
0.0
 11
177.285062942449
 21
-802.1736591823251
 31
0.0
  0
LINE
  5
6F5
  8
VISIBLE
 10
177.285062942449
 20
-802.1736591823251
 30
0.0
 11
177.2788419713183
 21
-802.1434430625554
 31
0.0
  0
LINE
  5
6F6
  8
VISIBLE
 10
177.2788419713183
 20
-802.1434430625554
 30
0.0
 11
177.2734165160627
 21
-802.1129728158994
 31
0.0
  0
LINE
  5
6F7
  8
VISIBLE
 10
177.2734165160627
 20
-802.1129728158994
 30
0.0
 11
177.2687970397808
 21
-802.082258205101
 31
0.0
  0
LINE
  5
6F8
  8
VISIBLE
 10
177.2687970397808
 20
-802.082258205101
 30
0.0
 11
177.2649940055712
 21
-802.0513089929042
 31
0.0
  0
LINE
  5
6F9
  8
VISIBLE
 10
177.2649940055712
 20
-802.0513089929042
 30
0.0
 11
177.2620178765327
 21
-802.0201349420532
 31
0.0
  0
LINE
  5
6FA
  8
VISIBLE
 10
177.2620178765327
 20
-802.0201349420532
 30
0.0
 11
177.259879115764
 21
-801.9887458152921
 31
0.0
  0
LINE
  5
6FB
  8
VISIBLE
 10
177.259879115764
 20
-801.9887458152921
 30
0.0
 11
177.2585881863638
 21
-801.9571513753649
 31
0.0
  0
LINE
  5
6FC
  8
VISIBLE
 10
177.2585881863638
 20
-801.9571513753649
 30
0.0
 11
177.2581555514307
 21
-801.925361385016
 31
0.0
  0
LINE
  5
6FD
  8
VISIBLE
 10
177.2581555514307
 20
-801.925361385016
 30
0.0
 11
177.2585879291118
 21
-801.893764225627
 31
0.0
  0
LINE
  5
6FE
  8
VISIBLE
 10
177.2585879291118
 20
-801.893764225627
 30
0.0
 11
177.2598780908953
 21
-801.8623566363271
 31
0.0
  0
LINE
  5
6FF
  8
VISIBLE
 10
177.2598780908953
 20
-801.8623566363271
 30
0.0
 11
177.2620155798913
 21
-801.8311483798607
 31
0.0
  0
LINE
  5
700
  8
VISIBLE
 10
177.2620155798913
 20
-801.8311483798607
 30
0.0
 11
177.2649899392099
 21
-801.8001492189716
 31
0.0
  0
LINE
  5
701
  8
VISIBLE
 10
177.2649899392099
 20
-801.8001492189716
 30
0.0
 11
177.2687907119613
 21
-801.769368916404
 31
0.0
  0
LINE
  5
702
  8
VISIBLE
 10
177.2687907119613
 20
-801.769368916404
 30
0.0
 11
177.2734074412555
 21
-801.738817234902
 31
0.0
  0
LINE
  5
703
  8
VISIBLE
 10
177.2734074412555
 20
-801.738817234902
 30
0.0
 11
177.2788296702028
 21
-801.7085039372097
 31
0.0
  0
LINE
  5
704
  8
VISIBLE
 10
177.2788296702028
 20
-801.7085039372097
 30
0.0
 11
177.2850469419132
 21
-801.6784387860712
 31
0.0
  0
LINE
  5
705
  8
VISIBLE
 10
177.2850469419132
 20
-801.6784387860712
 30
0.0
 11
177.292048799497
 21
-801.6486315442307
 31
0.0
  0
LINE
  5
706
  8
VISIBLE
 10
177.292048799497
 20
-801.6486315442307
 30
0.0
 11
177.2998247860641
 21
-801.6190919744322
 31
0.0
  0
LINE
  5
707
  8
VISIBLE
 10
177.2998247860641
 20
-801.6190919744322
 30
0.0
 11
177.3083644447248
 21
-801.58982983942
 31
0.0
  0
LINE
  5
708
  8
VISIBLE
 10
177.3083644447248
 20
-801.58982983942
 30
0.0
 11
177.3176573185892
 21
-801.560854901938
 31
0.0
  0
LINE
  5
709
  8
VISIBLE
 10
177.3176573185892
 20
-801.560854901938
 30
0.0
 11
177.3276929507674
 21
-801.5321769247303
 31
0.0
  0
LINE
  5
70A
  8
VISIBLE
 10
177.3276929507674
 20
-801.5321769247303
 30
0.0
 11
177.3384608843695
 21
-801.5038056705412
 31
0.0
  0
LINE
  5
70B
  8
VISIBLE
 10
177.3384608843695
 20
-801.5038056705412
 30
0.0
 11
177.3499506625057
 21
-801.4757509021146
 31
0.0
  0
LINE
  5
70C
  8
VISIBLE
 10
177.3499506625057
 20
-801.4757509021146
 30
0.0
 11
177.3621518282861
 21
-801.4480223821947
 31
0.0
  0
LINE
  5
70D
  8
VISIBLE
 10
177.3621518282861
 20
-801.4480223821947
 30
0.0
 11
177.3750539248209
 21
-801.4206298735257
 31
0.0
  0
LINE
  5
70E
  8
VISIBLE
 10
177.3750539248209
 20
-801.4206298735257
 30
0.0
 11
177.3886464952201
 21
-801.3935831388517
 31
0.0
  0
LINE
  5
70F
  8
VISIBLE
 10
177.3886464952201
 20
-801.3935831388517
 30
0.0
 11
177.402919082594
 21
-801.3668919409166
 31
0.0
  0
LINE
  5
710
  8
VISIBLE
 10
177.402919082594
 20
-801.3668919409166
 30
0.0
 11
177.4178612300526
 21
-801.3405660424646
 31
0.0
  0
LINE
  5
711
  8
VISIBLE
 10
177.4178612300526
 20
-801.3405660424646
 30
0.0
 11
177.4334624807061
 21
-801.3146152062399
 31
0.0
  0
LINE
  5
712
  8
VISIBLE
 10
177.4334624807061
 20
-801.3146152062399
 30
0.0
 11
177.4497123776645
 21
-801.2890491949865
 31
0.0
  0
LINE
  5
713
  8
VISIBLE
 10
177.4497123776645
 20
-801.2890491949865
 30
0.0
 11
177.4666004640382
 21
-801.2638777714486
 31
0.0
  0
LINE
  5
714
  8
VISIBLE
 10
177.4666004640382
 20
-801.2638777714486
 30
0.0
 11
177.484116282937
 21
-801.2391106983704
 31
0.0
  0
LINE
  5
715
  8
VISIBLE
 10
177.484116282937
 20
-801.2391106983704
 30
0.0
 11
177.5022493774713
 21
-801.2147577384958
 31
0.0
  0
LINE
  5
716
  8
VISIBLE
 10
177.5022493774713
 20
-801.2147577384958
 30
0.0
 11
177.5209892907511
 21
-801.190828654569
 31
0.0
  0
LINE
  5
717
  8
VISIBLE
 10
177.5209892907511
 20
-801.190828654569
 30
0.0
 11
177.5403255658866
 21
-801.1673332093342
 31
0.0
  0
LINE
  5
718
  8
VISIBLE
 10
177.5403255658866
 20
-801.1673332093342
 30
0.0
 11
177.5602477459879
 21
-801.1442811655352
 31
0.0
  0
LINE
  5
719
  8
VISIBLE
 10
177.5602477459879
 20
-801.1442811655352
 30
0.0
 11
177.5807453741651
 21
-801.1216822859164
 31
0.0
  0
LINE
  5
71A
  8
VISIBLE
 10
177.5807453741651
 20
-801.1216822859164
 30
0.0
 11
177.6018079935284
 21
-801.099546333222
 31
0.0
  0
LINE
  5
71B
  8
VISIBLE
 10
177.6018079935284
 20
-801.099546333222
 30
0.0
 11
177.6234251471878
 21
-801.0778830701956
 31
0.0
  0
LINE
  5
71C
  8
VISIBLE
 10
177.6234251471878
 20
-801.0778830701956
 30
0.0
 11
177.6455863782536
 21
-801.0567022595819
 31
0.0
  0
LINE
  5
71D
  8
VISIBLE
 10
177.6455863782536
 20
-801.0567022595819
 30
0.0
 11
177.6682812298358
 21
-801.0360136641247
 31
0.0
  0
LINE
  5
71E
  8
VISIBLE
 10
177.6682812298358
 20
-801.0360136641247
 30
0.0
 11
177.6914992450447
 21
-801.0158270465681
 31
0.0
  0
LINE
  5
71F
  8
VISIBLE
 10
177.6914992450447
 20
-801.0158270465681
 30
0.0
 11
177.7152299669902
 21
-800.9961521696563
 31
0.0
  0
LINE
  5
720
  8
VISIBLE
 10
177.7152299669902
 20
-800.9961521696563
 30
0.0
 11
177.7394629387827
 21
-800.9769987961334
 31
0.0
  0
LINE
  5
721
  8
VISIBLE
 10
177.7394629387827
 20
-800.9769987961334
 30
0.0
 11
177.7641877035321
 21
-800.9583766887436
 31
0.0
  0
LINE
  5
722
  8
VISIBLE
 10
177.7641877035321
 20
-800.9583766887436
 30
0.0
 11
177.7893938043486
 21
-800.9402956102308
 31
0.0
  0
LINE
  5
723
  8
VISIBLE
 10
177.7893938043486
 20
-800.9402956102308
 30
0.0
 11
177.8150707843424
 21
-800.9227653233391
 31
0.0
  0
LINE
  5
724
  8
VISIBLE
 10
177.8150707843424
 20
-800.9227653233391
 30
0.0
 11
177.8412081866235
 21
-800.9057955908129
 31
0.0
  0
LINE
  5
725
  8
VISIBLE
 10
177.8412081866235
 20
-800.9057955908129
 30
0.0
 11
177.8677955543022
 21
-800.8893961753961
 31
0.0
  0
LINE
  5
726
  8
VISIBLE
 10
177.8677955543022
 20
-800.8893961753961
 30
0.0
 11
177.8948224304885
 21
-800.8735768398328
 31
0.0
  0
LINE
  5
727
  8
VISIBLE
 10
177.8948224304885
 20
-800.8735768398328
 30
0.0
 11
177.9222783582926
 21
-800.8583473468672
 31
0.0
  0
LINE
  5
728
  8
VISIBLE
 10
177.9222783582926
 20
-800.8583473468672
 30
0.0
 11
177.9501528808246
 21
-800.8437174592432
 31
0.0
  0
LINE
  5
729
  8
VISIBLE
 10
177.9501528808246
 20
-800.8437174592432
 30
0.0
 11
177.9784355411948
 21
-800.8296969397052
 31
0.0
  0
LINE
  5
72A
  8
VISIBLE
 10
177.9784355411948
 20
-800.8296969397052
 30
0.0
 11
178.007115882513
 21
-800.816295550997
 31
0.0
  0
LINE
  5
72B
  8
VISIBLE
 10
178.007115882513
 20
-800.816295550997
 30
0.0
 11
178.0361834478896
 21
-800.803523055863
 31
0.0
  0
LINE
  5
72C
  8
VISIBLE
 10
178.0361834478896
 20
-800.803523055863
 30
0.0
 11
178.0656277804346
 21
-800.7913892170473
 31
0.0
  0
LINE
  5
72D
  8
VISIBLE
 10
178.0656277804346
 20
-800.7913892170473
 30
0.0
 11
178.0954384232581
 21
-800.7799037972936
 31
0.0
  0
LINE
  5
72E
  8
VISIBLE
 10
178.0954384232581
 20
-800.7799037972936
 30
0.0
 11
178.1256049194704
 21
-800.7690765593466
 31
0.0
  0
LINE
  5
72F
  8
VISIBLE
 10
178.1256049194704
 20
-800.7690765593466
 30
0.0
 11
178.1561168121816
 21
-800.7589172659499
 31
0.0
  0
LINE
  5
730
  8
VISIBLE
 10
178.1561168121816
 20
-800.7589172659499
 30
0.0
 11
178.1869636445016
 21
-800.7494356798479
 31
0.0
  0
LINE
  5
731
  8
VISIBLE
 10
178.1869636445016
 20
-800.7494356798479
 30
0.0
 11
178.2181349595408
 21
-800.7406415637847
 31
0.0
  0
LINE
  5
732
  8
VISIBLE
 10
178.2181349595408
 20
-800.7406415637847
 30
0.0
 11
178.2496203004093
 21
-800.7325446805044
 31
0.0
  0
LINE
  5
733
  8
VISIBLE
 10
178.2496203004093
 20
-800.7325446805044
 30
0.0
 11
178.2814092102171
 21
-800.7251547927509
 31
0.0
  0
LINE
  5
734
  8
VISIBLE
 10
178.2814092102171
 20
-800.7251547927509
 30
0.0
 11
178.3134912320744
 21
-800.7184816632684
 31
0.0
  0
LINE
  5
735
  8
VISIBLE
 10
178.3134912320744
 20
-800.7184816632684
 30
0.0
 11
178.3458559090913
 21
-800.7125350548012
 31
0.0
  0
LINE
  5
736
  8
VISIBLE
 10
178.3458559090913
 20
-800.7125350548012
 30
0.0
 11
178.378492784378
 21
-800.7073247300932
 31
0.0
  0
LINE
  5
737
  8
VISIBLE
 10
178.378492784378
 20
-800.7073247300932
 30
0.0
 11
178.4113914010446
 21
-800.7028604518887
 31
0.0
  0
LINE
  5
738
  8
VISIBLE
 10
178.4113914010446
 20
-800.7028604518887
 30
0.0
 11
178.4445413022012
 21
-800.6991519829317
 31
0.0
  0
LINE
  5
739
  8
VISIBLE
 10
178.4445413022012
 20
-800.6991519829317
 30
0.0
 11
178.477932030958
 21
-800.6962090859662
 31
0.0
  0
LINE
  5
73A
  8
VISIBLE
 10
178.477932030958
 20
-800.6962090859662
 30
0.0
 11
178.5115531304251
 21
-800.6940415237364
 31
0.0
  0
LINE
  5
73B
  8
VISIBLE
 10
178.5115531304251
 20
-800.6940415237364
 30
0.0
 11
178.5453941437126
 21
-800.6926590589865
 31
0.0
  0
LINE
  5
73C
  8
VISIBLE
 10
178.5453941437126
 20
-800.6926590589865
 30
0.0
 11
178.5794446139307
 21
-800.6920714544603
 31
0.0
  0
LINE
  5
73D
  8
VISIBLE
 10
178.5794446139307
 20
-800.6920714544603
 30
0.0
 11
178.6131960899693
 21
-800.6926586238518
 31
0.0
  0
LINE
  5
73E
  8
VISIBLE
 10
178.6131960899693
 20
-800.6926586238518
 30
0.0
 11
178.6467479394977
 21
-800.6940397910626
 31
0.0
  0
LINE
  5
73F
  8
VISIBLE
 10
178.6467479394977
 20
-800.6940397910626
 30
0.0
 11
178.6800897211478
 21
-800.696205205145
 31
0.0
  0
LINE
  5
740
  8
VISIBLE
 10
178.6800897211478
 20
-800.696205205145
 30
0.0
 11
178.713210993552
 21
-800.699145115152
 31
0.0
  0
LINE
  5
741
  8
VISIBLE
 10
178.713210993552
 20
-800.699145115152
 30
0.0
 11
178.7461013153423
 21
-800.7028497701361
 31
0.0
  0
LINE
  5
742
  8
VISIBLE
 10
178.7461013153423
 20
-800.7028497701361
 30
0.0
 11
178.778750245151
 21
-800.7073094191502
 31
0.0
  0
LINE
  5
743
  8
VISIBLE
 10
178.778750245151
 20
-800.7073094191502
 30
0.0
 11
178.8111473416103
 21
-800.7125143112465
 31
0.0
  0
LINE
  5
744
  8
VISIBLE
 10
178.8111473416103
 20
-800.7125143112465
 30
0.0
 11
178.8432821633522
 21
-800.718454695478
 31
0.0
  0
LINE
  5
745
  8
VISIBLE
 10
178.8432821633522
 20
-800.718454695478
 30
0.0
 11
178.875144269009
 21
-800.7251208208972
 31
0.0
  0
LINE
  5
746
  8
VISIBLE
 10
178.875144269009
 20
-800.7251208208972
 30
0.0
 11
178.9067232172129
 21
-800.7325029365569
 31
0.0
  0
LINE
  5
747
  8
VISIBLE
 10
178.9067232172129
 20
-800.7325029365569
 30
0.0
 11
178.938008566596
 21
-800.7405912915095
 31
0.0
  0
LINE
  5
748
  8
VISIBLE
 10
178.938008566596
 20
-800.7405912915095
 30
0.0
 11
178.9689898757906
 21
-800.7493761348078
 31
0.0
  0
LINE
  5
749
  8
VISIBLE
 10
178.9689898757906
 20
-800.7493761348078
 30
0.0
 11
178.9996567034287
 21
-800.7588477155044
 31
0.0
  0
LINE
  5
74A
  8
VISIBLE
 10
178.9996567034287
 20
-800.7588477155044
 30
0.0
 11
179.0299986081426
 21
-800.7689962826521
 31
0.0
  0
LINE
  5
74B
  8
VISIBLE
 10
179.0299986081426
 20
-800.7689962826521
 30
0.0
 11
179.0600051485644
 21
-800.7798120853032
 31
0.0
  0
LINE
  5
74C
  8
VISIBLE
 10
179.0600051485644
 20
-800.7798120853032
 30
0.0
 11
179.0896658833263
 21
-800.7912853725106
 31
0.0
  0
LINE
  5
74D
  8
VISIBLE
 10
179.0896658833263
 20
-800.7912853725106
 30
0.0
 11
179.1189703710605
 21
-800.8034063933269
 31
0.0
  0
LINE
  5
74E
  8
VISIBLE
 10
179.1189703710605
 20
-800.8034063933269
 30
0.0
 11
179.1479081703991
 21
-800.8161653968048
 31
0.0
  0
LINE
  5
74F
  8
VISIBLE
 10
179.1479081703991
 20
-800.8161653968048
 30
0.0
 11
179.1764688399745
 21
-800.8295526319966
 31
0.0
  0
LINE
  5
750
  8
VISIBLE
 10
179.1764688399745
 20
-800.8295526319966
 30
0.0
 11
179.2046419384186
 21
-800.8435583479554
 31
0.0
  0
LINE
  5
751
  8
VISIBLE
 10
179.2046419384186
 20
-800.8435583479554
 30
0.0
 11
179.2324170243637
 21
-800.8581727937336
 31
0.0
  0
LINE
  5
752
  8
VISIBLE
 10
179.2324170243637
 20
-800.8581727937336
 30
0.0
 11
179.2597836564419
 21
-800.873386218384
 31
0.0
  0
LINE
  5
753
  8
VISIBLE
 10
179.2597836564419
 20
-800.873386218384
 30
0.0
 11
179.2867313932855
 21
-800.8891888709591
 31
0.0
  0
LINE
  5
754
  8
VISIBLE
 10
179.2867313932855
 20
-800.8891888709591
 30
0.0
 11
179.3132497935266
 21
-800.9055710005115
 31
0.0
  0
LINE
  5
755
  8
VISIBLE
 10
179.3132497935266
 20
-800.9055710005115
 30
0.0
 11
179.3393284157974
 21
-800.922522856094
 31
0.0
  0
LINE
  5
756
  8
VISIBLE
 10
179.3393284157974
 20
-800.922522856094
 30
0.0
 11
179.3649568187301
 21
-800.9400346867592
 31
0.0
  0
LINE
  5
757
  8
VISIBLE
 10
179.3649568187301
 20
-800.9400346867592
 30
0.0
 11
179.3901245609567
 21
-800.9580967415596
 31
0.0
  0
LINE
  5
758
  8
VISIBLE
 10
179.3901245609567
 20
-800.9580967415596
 30
0.0
 11
179.4148212011096
 21
-800.9766992695481
 31
0.0
  0
LINE
  5
759
  8
VISIBLE
 10
179.4148212011096
 20
-800.9766992695481
 30
0.0
 11
179.4390362978209
 21
-800.9958325197772
 31
0.0
  0
LINE
  5
75A
  8
VISIBLE
 10
179.4390362978209
 20
-800.9958325197772
 30
0.0
 11
179.4627594097228
 21
-801.0154867412996
 31
0.0
  0
LINE
  5
75B
  8
VISIBLE
 10
179.4627594097228
 20
-801.0154867412996
 30
0.0
 11
179.4859800954474
 21
-801.0356521831677
 31
0.0
  0
LINE
  5
75C
  8
VISIBLE
 10
179.4859800954474
 20
-801.0356521831677
 30
0.0
 11
179.5086879136269
 21
-801.0563190944345
 31
0.0
  0
LINE
  5
75D
  8
VISIBLE
 10
179.5086879136269
 20
-801.0563190944345
 30
0.0
 11
179.5308724228935
 21
-801.0774777241523
 31
0.0
  0
LINE
  5
75E
  8
VISIBLE
 10
179.5308724228935
 20
-801.0774777241523
 30
0.0
 11
179.5525231818793
 21
-801.0991183213741
 31
0.0
  0
LINE
  5
75F
  8
VISIBLE
 10
179.5525231818793
 20
-801.0991183213741
 30
0.0
 11
179.5736297492166
 21
-801.1212311351524
 31
0.0
  0
LINE
  5
760
  8
VISIBLE
 10
179.5736297492166
 20
-801.1212311351524
 30
0.0
 11
179.5941816835374
 21
-801.1438064145397
 31
0.0
  0
LINE
  5
761
  8
VISIBLE
 10
179.5941816835374
 20
-801.1438064145397
 30
0.0
 11
179.6141685434741
 21
-801.1668344085888
 31
0.0
  0
LINE
  5
762
  8
VISIBLE
 10
179.6141685434741
 20
-801.1668344085888
 30
0.0
 11
179.6335798876588
 21
-801.1903053663523
 31
0.0
  0
LINE
  5
763
  8
VISIBLE
 10
179.6335798876588
 20
-801.1903053663523
 30
0.0
 11
179.6524052747235
 21
-801.2142095368828
 31
0.0
  0
LINE
  5
764
  8
VISIBLE
 10
179.6524052747235
 20
-801.2142095368828
 30
0.0
 11
179.6706342633007
 21
-801.238537169233
 31
0.0
  0
LINE
  5
765
  8
VISIBLE
 10
179.6706342633007
 20
-801.238537169233
 30
0.0
 11
179.6882564120222
 21
-801.2632785124556
 31
0.0
  0
LINE
  5
766
  8
VISIBLE
 10
179.6882564120222
 20
-801.2632785124556
 30
0.0
 11
179.7052612795205
 21
-801.2884238156032
 31
0.0
  0
LINE
  5
767
  8
VISIBLE
 10
179.7052612795205
 20
-801.2884238156032
 30
0.0
 11
179.7216384244276
 21
-801.3139633277283
 31
0.0
  0
LINE
  5
768
  8
VISIBLE
 10
179.7216384244276
 20
-801.3139633277283
 30
0.0
 11
179.7373774053757
 21
-801.3398872978837
 31
0.0
  0
LINE
  5
769
  8
VISIBLE
 10
179.7373774053757
 20
-801.3398872978837
 30
0.0
 11
179.7524677809969
 21
-801.3661859751221
 31
0.0
  0
LINE
  5
76A
  8
VISIBLE
 10
179.7524677809969
 20
-801.3661859751221
 30
0.0
 11
179.7668991099236
 21
-801.392849608496
 31
0.0
  0
LINE
  5
76B
  8
VISIBLE
 10
179.7668991099236
 20
-801.392849608496
 30
0.0
 11
179.7806609507878
 21
-801.4198684470581
 31
0.0
  0
LINE
  5
76C
  8
VISIBLE
 10
179.7806609507878
 20
-801.4198684470581
 30
0.0
 11
179.7937428622217
 21
-801.447232739861
 31
0.0
  0
LINE
  5
76D
  8
VISIBLE
 10
179.7937428622217
 20
-801.447232739861
 30
0.0
 11
179.8061344028575
 21
-801.4749327359574
 31
0.0
  0
LINE
  5
76E
  8
VISIBLE
 10
179.8061344028575
 20
-801.4749327359574
 30
0.0
 11
179.8178251313273
 21
-801.5029586843999
 31
0.0
  0
LINE
  5
76F
  8
VISIBLE
 10
179.8178251313273
 20
-801.5029586843999
 30
0.0
 11
179.8288046062634
 21
-801.5313008342412
 31
0.0
  0
LINE
  5
770
  8
VISIBLE
 10
179.8288046062634
 20
-801.5313008342412
 30
0.0
 11
179.8390623862979
 21
-801.5599494345338
 31
0.0
  0
LINE
  5
771
  8
VISIBLE
 10
179.8390623862979
 20
-801.5599494345338
 30
0.0
 11
179.848588030063
 21
-801.5888947343306
 31
0.0
  0
LINE
  5
772
  8
VISIBLE
 10
179.848588030063
 20
-801.5888947343306
 30
0.0
 11
179.8573710961909
 21
-801.6181269826841
 31
0.0
  0
LINE
  5
773
  8
VISIBLE
 10
179.8573710961909
 20
-801.6181269826841
 30
0.0
 11
179.8654011433137
 21
-801.6476364286468
 31
0.0
  0
LINE
  5
774
  8
VISIBLE
 10
179.8654011433137
 20
-801.6476364286468
 30
0.0
 11
179.8726677300636
 21
-801.6774133212716
 31
0.0
  0
LINE
  5
775
  8
VISIBLE
 10
179.8726677300636
 20
-801.6774133212716
 30
0.0
 11
179.8791604150728
 21
-801.707447909611
 31
0.0
  0
LINE
  5
776
  8
VISIBLE
 10
179.8791604150728
 20
-801.707447909611
 30
0.0
 11
179.8848687569735
 21
-801.7377304427177
 31
0.0
  0
LINE
  5
777
  8
VISIBLE
 10
179.8848687569735
 20
-801.7377304427177
 30
0.0
 11
179.8897823143978
 21
-801.7682511696444
 31
0.0
  0
LINE
  5
778
  8
VISIBLE
 10
179.8897823143978
 20
-801.7682511696444
 30
0.0
 11
179.893890645978
 21
-801.7990003394435
 31
0.0
  0
LINE
  5
779
  8
VISIBLE
 10
179.893890645978
 20
-801.7990003394435
 30
0.0
 11
179.8971833103461
 21
-801.829968201168
 31
0.0
  0
LINE
  5
77A
  8
VISIBLE
 10
179.8971833103461
 20
-801.829968201168
 30
0.0
 11
179.8996498661344
 21
-801.8611450038702
 31
0.0
  0
LINE
  5
77B
  8
VISIBLE
 10
179.8996498661344
 20
-801.8611450038702
 30
0.0
 11
179.901279871975
 21
-801.8925209966029
 31
0.0
  0
LINE
  5
77C
  8
VISIBLE
 10
179.901279871975
 20
-801.8925209966029
 30
0.0
 11
179.9020628865001
 21
-801.9240864284188
 31
0.0
  0
LINE
  5
77D
  8
VISIBLE
 10
180.2058280774723
 20
-799.8539231254674
 30
0.0
 11
180.1977622246184
 21
-799.8251890573915
 31
0.0
  0
LINE
  5
77E
  8
VISIBLE
 10
180.1977622246184
 20
-799.8251890573915
 30
0.0
 11
180.1642839049734
 21
-799.7103315625604
 31
0.0
  0
LINE
  5
77F
  8
VISIBLE
 10
180.1642839049734
 20
-799.7103315625604
 30
0.0
 11
180.152440627625
 21
-799.6639526917553
 31
0.0
  0
LINE
  5
780
  8
VISIBLE
 10
180.152440627625
 20
-799.6639526917553
 30
0.0
 11
180.1467974146642
 21
-799.6394919712359
 31
0.0
  0
LINE
  5
781
  8
VISIBLE
 10
180.1467974146642
 20
-799.6394919712359
 30
0.0
 11
180.1414603063237
 21
-799.6142566635226
 31
0.0
  0
LINE
  5
782
  8
VISIBLE
 10
180.1414603063237
 20
-799.6142566635226
 30
0.0
 11
180.136519668212
 21
-799.5883014707779
 31
0.0
  0
LINE
  5
783
  8
VISIBLE
 10
180.136519668212
 20
-799.5883014707779
 30
0.0
 11
180.1320658659376
 21
-799.5616810951645
 31
0.0
  0
LINE
  5
784
  8
VISIBLE
 10
180.1320658659376
 20
-799.5616810951645
 30
0.0
 11
180.1281892651092
 21
-799.5344502388454
 31
0.0
  0
LINE
  5
785
  8
VISIBLE
 10
180.1281892651092
 20
-799.5344502388454
 30
0.0
 11
180.1249802313352
 21
-799.5066636039829
 31
0.0
  0
LINE
  5
786
  8
VISIBLE
 10
180.1249802313352
 20
-799.5066636039829
 30
0.0
 11
180.1225291302241
 21
-799.4783758927401
 31
0.0
  0
LINE
  5
787
  8
VISIBLE
 10
180.1225291302241
 20
-799.4783758927401
 30
0.0
 11
180.1209263273846
 21
-799.4496418072796
 31
0.0
  0
LINE
  5
788
  8
VISIBLE
 10
180.1209263273846
 20
-799.4496418072796
 30
0.0
 11
180.1202621884251
 21
-799.4205160497643
 31
0.0
  0
LINE
  5
789
  8
VISIBLE
 10
180.1202621884251
 20
-799.4205160497643
 30
0.0
 11
180.120310357153
 21
-799.4058233884118
 31
0.0
  0
LINE
  5
78A
  8
VISIBLE
 10
180.120310357153
 20
-799.4058233884118
 30
0.0
 11
180.1206270789541
 21
-799.3910533223566
 31
0.0
  0
LINE
  5
78B
  8
VISIBLE
 10
180.1206270789541
 20
-799.3910533223566
 30
0.0
 11
180.1212236495295
 21
-799.376212689369
 31
0.0
  0
LINE
  5
78C
  8
VISIBLE
 10
180.1212236495295
 20
-799.376212689369
 30
0.0
 11
180.1221113645803
 21
-799.3613083272196
 31
0.0
  0
LINE
  5
78D
  8
VISIBLE
 10
180.1221113645803
 20
-799.3613083272196
 30
0.0
 11
180.1233015198074
 21
-799.3463470736784
 31
0.0
  0
LINE
  5
78E
  8
VISIBLE
 10
180.1233015198074
 20
-799.3463470736784
 30
0.0
 11
180.124805410912
 21
-799.3313357665158
 31
0.0
  0
LINE
  5
78F
  8
VISIBLE
 10
180.124805410912
 20
-799.3313357665158
 30
0.0
 11
180.1266343335952
 21
-799.3162812435023
 31
0.0
  0
LINE
  5
790
  8
VISIBLE
 10
180.1266343335952
 20
-799.3162812435023
 30
0.0
 11
180.128799583558
 21
-799.3011903424081
 31
0.0
  0
LINE
  5
791
  8
VISIBLE
 10
180.128799583558
 20
-799.3011903424081
 30
0.0
 11
180.1313124565014
 21
-799.2860699010035
 31
0.0
  0
LINE
  5
792
  8
VISIBLE
 10
180.1313124565014
 20
-799.2860699010035
 30
0.0
 11
180.1341842481266
 21
-799.2709267570591
 31
0.0
  0
LINE
  5
793
  8
VISIBLE
 10
180.1341842481266
 20
-799.2709267570591
 30
0.0
 11
180.1374262541346
 21
-799.2557677483451
 31
0.0
  0
LINE
  5
794
  8
VISIBLE
 10
180.1374262541346
 20
-799.2557677483451
 30
0.0
 11
180.1410497702265
 21
-799.2405997126317
 31
0.0
  0
LINE
  5
795
  8
VISIBLE
 10
180.1410497702265
 20
-799.2405997126317
 30
0.0
 11
180.1450660921033
 21
-799.2254294876893
 31
0.0
  0
LINE
  5
796
  8
VISIBLE
 10
180.1450660921033
 20
-799.2254294876893
 30
0.0
 11
180.1494865154661
 21
-799.2102639112886
 31
0.0
  0
LINE
  5
797
  8
VISIBLE
 10
180.1494865154661
 20
-799.2102639112886
 30
0.0
 11
180.154322336016
 21
-799.1951098211996
 31
0.0
  0
LINE
  5
798
  8
VISIBLE
 10
180.154322336016
 20
-799.1951098211996
 30
0.0
 11
180.159584849454
 21
-799.1799740551925
 31
0.0
  0
LINE
  5
799
  8
VISIBLE
 10
180.159584849454
 20
-799.1799740551925
 30
0.0
 11
180.1652853514813
 21
-799.164863451038
 31
0.0
  0
LINE
  5
79A
  8
VISIBLE
 10
180.1652853514813
 20
-799.164863451038
 30
0.0
 11
180.1714351377988
 21
-799.1497848465061
 31
0.0
  0
LINE
  5
79B
  8
VISIBLE
 10
180.1714351377988
 20
-799.1497848465061
 30
0.0
 11
180.1780455041076
 21
-799.1347450793676
 31
0.0
  0
LINE
  5
79C
  8
VISIBLE
 10
180.1780455041076
 20
-799.1347450793676
 30
0.0
 11
180.1851277461089
 21
-799.1197509873923
 31
0.0
  0
LINE
  5
79D
  8
VISIBLE
 10
180.1851277461089
 20
-799.1197509873923
 30
0.0
 11
180.1926931595036
 21
-799.104809408351
 31
0.0
  0
LINE
  5
79E
  8
VISIBLE
 10
180.1926931595036
 20
-799.104809408351
 30
0.0
 11
180.2007530399929
 21
-799.0899271800138
 31
0.0
  0
LINE
  5
79F
  8
VISIBLE
 10
180.2007530399929
 20
-799.0899271800138
 30
0.0
 11
180.2093186832778
 21
-799.0751111401511
 31
0.0
  0
LINE
  5
7A0
  8
VISIBLE
 10
180.2093186832778
 20
-799.0751111401511
 30
0.0
 11
180.2184013850593
 21
-799.0603681265331
 31
0.0
  0
LINE
  5
7A1
  8
VISIBLE
 10
180.2184013850593
 20
-799.0603681265331
 30
0.0
 11
180.2280124410386
 21
-799.0457049769304
 31
0.0
  0
LINE
  5
7A2
  8
VISIBLE
 10
180.2280124410386
 20
-799.0457049769304
 30
0.0
 11
180.2484571714389
 21
-799.0164076898718
 31
0.0
  0
LINE
  5
7A3
  8
VISIBLE
 10
180.2484571714389
 20
-799.0164076898718
 30
0.0
 11
180.2584929749804
 21
-799.0013139919126
 31
0.0
  0
LINE
  5
7A4
  8
VISIBLE
 10
180.2584929749804
 20
-799.0013139919126
 30
0.0
 11
180.2682664112933
 21
-798.9858601192277
 31
0.0
  0
LINE
  5
7A5
  8
VISIBLE
 10
180.2682664112933
 20
-798.9858601192277
 30
0.0
 11
180.2777733341294
 21
-798.9700587558101
 31
0.0
  0
LINE
  5
7A6
  8
VISIBLE
 10
180.2777733341294
 20
-798.9700587558101
 30
0.0
 11
180.2870095972406
 21
-798.9539225856522
 31
0.0
  0
LINE
  5
7A7
  8
VISIBLE
 10
180.2870095972406
 20
-798.9539225856522
 30
0.0
 11
180.2959710543789
 21
-798.9374642927464
 31
0.0
  0
LINE
  5
7A8
  8
VISIBLE
 10
180.2959710543789
 20
-798.9374642927464
 30
0.0
 11
180.3046535592961
 21
-798.9206965610858
 31
0.0
  0
LINE
  5
7A9
  8
VISIBLE
 10
180.3046535592961
 20
-798.9206965610858
 30
0.0
 11
180.3130529657441
 21
-798.9036320746625
 31
0.0
  0
LINE
  5
7AA
  8
VISIBLE
 10
180.3130529657441
 20
-798.9036320746625
 30
0.0
 11
180.3211651274748
 21
-798.8862835174691
 31
0.0
  0
LINE
  5
7AB
  8
VISIBLE
 10
180.3211651274748
 20
-798.8862835174691
 30
0.0
 11
180.3289858982401
 21
-798.8686635734986
 31
0.0
  0
LINE
  5
7AC
  8
VISIBLE
 10
180.3289858982401
 20
-798.8686635734986
 30
0.0
 11
180.336511131792
 21
-798.8507849267432
 31
0.0
  0
LINE
  5
7AD
  8
VISIBLE
 10
180.336511131792
 20
-798.8507849267432
 30
0.0
 11
180.3437366818823
 21
-798.8326602611957
 31
0.0
  0
LINE
  5
7AE
  8
VISIBLE
 10
180.3437366818823
 20
-798.8326602611957
 30
0.0
 11
180.3506584022629
 21
-798.8143022608485
 31
0.0
  0
LINE
  5
7AF
  8
VISIBLE
 10
180.3506584022629
 20
-798.8143022608485
 30
0.0
 11
180.3572721466857
 21
-798.7957236096943
 31
0.0
  0
LINE
  5
7B0
  8
VISIBLE
 10
180.3572721466857
 20
-798.7957236096943
 30
0.0
 11
180.3635737689025
 21
-798.7769369917255
 31
0.0
  0
LINE
  5
7B1
  8
VISIBLE
 10
180.3635737689025
 20
-798.7769369917255
 30
0.0
 11
180.3695591226655
 21
-798.7579550909351
 31
0.0
  0
LINE
  5
7B2
  8
VISIBLE
 10
180.3695591226655
 20
-798.7579550909351
 30
0.0
 11
180.3752240617263
 21
-798.7387905913154
 31
0.0
  0
LINE
  5
7B3
  8
VISIBLE
 10
180.3752240617263
 20
-798.7387905913154
 30
0.0
 11
180.3805644398369
 21
-798.7194561768589
 31
0.0
  0
LINE
  5
7B4
  8
VISIBLE
 10
180.3805644398369
 20
-798.7194561768589
 30
0.0
 11
180.3855761107492
 21
-798.6999645315583
 31
0.0
  0
LINE
  5
7B5
  8
VISIBLE
 10
180.3855761107492
 20
-798.6999645315583
 30
0.0
 11
180.3902549282151
 21
-798.6803283394062
 31
0.0
  0
LINE
  5
7B6
  8
VISIBLE
 10
180.3902549282151
 20
-798.6803283394062
 30
0.0
 11
180.3945967459865
 21
-798.6605602843952
 31
0.0
  0
LINE
  5
7B7
  8
VISIBLE
 10
180.3945967459865
 20
-798.6605602843952
 30
0.0
 11
180.3985974178153
 21
-798.6406730505178
 31
0.0
  0
LINE
  5
7B8
  8
VISIBLE
 10
180.3985974178153
 20
-798.6406730505178
 30
0.0
 11
180.4022527974533
 21
-798.6206793217666
 31
0.0
  0
LINE
  5
7B9
  8
VISIBLE
 10
180.4022527974533
 20
-798.6206793217666
 30
0.0
 11
180.4055587386526
 21
-798.6005917821344
 31
0.0
  0
LINE
  5
7BA
  8
VISIBLE
 10
180.4055587386526
 20
-798.6005917821344
 30
0.0
 11
180.408511095165
 21
-798.5804231156135
 31
0.0
  0
LINE
  5
7BB
  8
VISIBLE
 10
180.408511095165
 20
-798.5804231156135
 30
0.0
 11
180.4111057207423
 21
-798.5601860061965
 31
0.0
  0
LINE
  5
7BC
  8
VISIBLE
 10
180.4111057207423
 20
-798.5601860061965
 30
0.0
 11
180.4133384691365
 21
-798.5398931378763
 31
0.0
  0
LINE
  5
7BD
  8
VISIBLE
 10
180.4133384691365
 20
-798.5398931378763
 30
0.0
 11
180.4152051940995
 21
-798.5195571946451
 31
0.0
  0
LINE
  5
7BE
  8
VISIBLE
 10
180.4152051940995
 20
-798.5195571946451
 30
0.0
 11
180.4167017493831
 21
-798.4991908604957
 31
0.0
  0
LINE
  5
7BF
  8
VISIBLE
 10
180.4167017493831
 20
-798.4991908604957
 30
0.0
 11
180.4178239887394
 21
-798.4788068194206
 31
0.0
  0
LINE
  5
7C0
  8
VISIBLE
 10
180.4178239887394
 20
-798.4788068194206
 30
0.0
 11
180.4185677659201
 21
-798.4584177554125
 31
0.0
  0
LINE
  5
7C1
  8
VISIBLE
 10
180.4185677659201
 20
-798.4584177554125
 30
0.0
 11
180.4189289346772
 21
-798.4380363524638
 31
0.0
  0
LINE
  5
7C2
  8
VISIBLE
 10
180.4189289346772
 20
-798.4380363524638
 30
0.0
 11
180.4189033487625
 21
-798.4176752945673
 31
0.0
  0
LINE
  5
7C3
  8
VISIBLE
 10
180.4189033487625
 20
-798.4176752945673
 30
0.0
 11
180.418486861928
 21
-798.3973472657153
 31
0.0
  0
LINE
  5
7C4
  8
VISIBLE
 10
180.418486861928
 20
-798.3973472657153
 30
0.0
 11
180.4176753279256
 21
-798.3770649499006
 31
0.0
  0
LINE
  5
7C5
  8
VISIBLE
 10
180.4176753279256
 20
-798.3770649499006
 30
0.0
 11
180.4164646005071
 21
-798.3568410311158
 31
0.0
  0
LINE
  5
7C6
  8
VISIBLE
 10
180.4164646005071
 20
-798.3568410311158
 30
0.0
 11
180.4148505334246
 21
-798.3366881933533
 31
0.0
  0
LINE
  5
7C7
  8
VISIBLE
 10
180.4148505334246
 20
-798.3366881933533
 30
0.0
 11
180.4128289804297
 21
-798.316619120606
 31
0.0
  0
LINE
  5
7C8
  8
VISIBLE
 10
180.4128289804297
 20
-798.316619120606
 30
0.0
 11
180.4103957952745
 21
-798.2966464968663
 31
0.0
  0
LINE
  5
7C9
  8
VISIBLE
 10
180.4103957952745
 20
-798.2966464968663
 30
0.0
 11
180.4075468317108
 21
-798.2767830061266
 31
0.0
  0
LINE
  5
7CA
  8
VISIBLE
 10
180.4075468317108
 20
-798.2767830061266
 30
0.0
 11
180.4042779434906
 21
-798.2570413323797
 31
0.0
  0
LINE
  5
7CB
  8
VISIBLE
 10
180.4042779434906
 20
-798.2570413323797
 30
0.0
 11
180.4005849843658
 21
-798.2374341596183
 31
0.0
  0
LINE
  5
7CC
  8
VISIBLE
 10
180.4005849843658
 20
-798.2374341596183
 30
0.0
 11
180.3964638080882
 21
-798.2179741718346
 31
0.0
  0
LINE
  5
7CD
  8
VISIBLE
 10
180.3964638080882
 20
-798.2179741718346
 30
0.0
 11
180.3919102684098
 21
-798.1986740530215
 31
0.0
  0
LINE
  5
7CE
  8
VISIBLE
 10
180.3919102684098
 20
-798.1986740530215
 30
0.0
 11
180.3869202190824
 21
-798.1795464871714
 31
0.0
  0
LINE
  5
7CF
  8
VISIBLE
 10
180.3869202190824
 20
-798.1795464871714
 30
0.0
 11
180.3814895138579
 21
-798.1606041582771
 31
0.0
  0
LINE
  5
7D0
  8
VISIBLE
 10
180.3814895138579
 20
-798.1606041582771
 30
0.0
 11
180.3756140064882
 21
-798.1418597503312
 31
0.0
  0
LINE
  5
7D1
  8
VISIBLE
 10
180.3756140064882
 20
-798.1418597503312
 30
0.0
 11
180.3692895507253
 21
-798.123325947326
 31
0.0
  0
LINE
  5
7D2
  8
VISIBLE
 10
180.3692895507253
 20
-798.123325947326
 30
0.0
 11
180.3625120003211
 21
-798.1050154332543
 31
0.0
  0
LINE
  5
7D3
  8
VISIBLE
 10
180.3625120003211
 20
-798.1050154332543
 30
0.0
 11
180.3552772090273
 21
-798.0869408921085
 31
0.0
  0
LINE
  5
7D4
  8
VISIBLE
 10
180.3552772090273
 20
-798.0869408921085
 30
0.0
 11
180.347581030596
 21
-798.0691150078812
 31
0.0
  0
LINE
  5
7D5
  8
VISIBLE
 10
180.347581030596
 20
-798.0691150078812
 30
0.0
 11
180.339419318779
 21
-798.0515504645654
 31
0.0
  0
LINE
  5
7D6
  8
VISIBLE
 10
180.339419318779
 20
-798.0515504645654
 30
0.0
 11
180.3307879273282
 21
-798.0342599461533
 31
0.0
  0
LINE
  5
7D7
  8
VISIBLE
 10
180.3307879273282
 20
-798.0342599461533
 30
0.0
 11
180.3216827099956
 21
-798.0172561366376
 31
0.0
  0
LINE
  5
7D8
  8
VISIBLE
 10
180.3216827099956
 20
-798.0172561366376
 30
0.0
 11
180.312099520533
 21
-798.0005517200107
 31
0.0
  0
LINE
  5
7D9
  8
VISIBLE
 10
180.312099520533
 20
-798.0005517200107
 30
0.0
 11
180.3020342126923
 21
-797.9841593802653
 31
0.0
  0
LINE
  5
7DA
  8
VISIBLE
 10
180.3020342126923
 20
-797.9841593802653
 30
0.0
 11
180.2914826402254
 21
-797.9680918013942
 31
0.0
  0
LINE
  5
7DB
  8
VISIBLE
 10
180.2914826402254
 20
-797.9680918013942
 30
0.0
 11
180.2804406568843
 21
-797.9523616673896
 31
0.0
  0
LINE
  5
7DC
  8
VISIBLE
 10
180.2804406568843
 20
-797.9523616673896
 30
0.0
 11
180.2689041164207
 21
-797.9369816622443
 31
0.0
  0
LINE
  5
7DD
  8
VISIBLE
 10
180.2689041164207
 20
-797.9369816622443
 30
0.0
 11
180.2568688725866
 21
-797.9219644699509
 31
0.0
  0
LINE
  5
7DE
  8
VISIBLE
 10
180.2568688725866
 20
-797.9219644699509
 30
0.0
 11
180.244330779134
 21
-797.9073227745021
 31
0.0
  0
LINE
  5
7DF
  8
VISIBLE
 10
180.244330779134
 20
-797.9073227745021
 30
0.0
 11
180.2312856898146
 21
-797.8930692598901
 31
0.0
  0
LINE
  5
7E0
  8
VISIBLE
 10
180.2312856898146
 20
-797.8930692598901
 30
0.0
 11
180.2177294583805
 21
-797.879216610108
 31
0.0
  0
LINE
  5
7E1
  8
VISIBLE
 10
180.2177294583805
 20
-797.879216610108
 30
0.0
 11
180.2036579385834
 21
-797.8657775091478
 31
0.0
  0
LINE
  5
7E2
  8
VISIBLE
 10
182.603451775389
 20
-799.756185495259
 30
0.0
 11
181.7155665757362
 21
-800.1422667669603
 31
0.0
  0
LINE
  5
7E3
  8
VISIBLE
 10
181.7155665757362
 20
-800.1422667669603
 30
0.0
 11
181.6728148396251
 21
-800.0727816324118
 31
0.0
  0
LINE
  5
7E4
  8
VISIBLE
 10
181.6728148396251
 20
-800.0727816324118
 30
0.0
 11
181.5290973917084
 21
-799.9324821532451
 31
0.0
  0
ARC
  5
7E5
  8
VISIBLE
 10
181.1451161504778
 20
-800.4656720469487
 30
0.0
 40
0.6570639667221626
 50
54.24013179953318
 51
155.8146411196223
  0
LINE
  5
7E6
  8
VISIBLE
 10
180.5457260809446
 20
-800.1964795490785
 30
0.0
 11
180.5457260809446
 21
-800.6468918754674
 31
0.0
  0
LINE
  5
7E7
  8
VISIBLE
 10
180.5457260809446
 20
-800.6468918754674
 30
0.0
 11
182.6070053778196
 21
-800.6468918754674
 31
0.0
  0
LINE
  5
7E8
  8
VISIBLE
 10
181.5823743014307
 20
-798.525716745259
 30
0.0
 11
181.5823743014307
 21
-799.2290451957799
 31
0.0
  0
ARC
  5
7E9
  8
VISIBLE
 10
177.7821272528049
 20
-796.2551740933409
 30
0.0
 40
0.0027552285752549
 50
140.7845254384841
 51
355.8873232317076
  0
LINE
  5
7EA
  8
VISIBLE
 10
177.7801282076807
 20
-795.5156662895299
 30
0.0
 11
177.7799925740001
 21
-796.2534321315438
 31
0.0
  0
LINE
  5
7EB
  8
VISIBLE
 10
181.0364487371946
 20
-797.2201340629674
 30
0.0
 11
181.0366114976112
 21
-797.2191439370993
 31
0.0
  0
LINE
  5
7EC
  8
VISIBLE
 10
181.0366114976112
 20
-797.2191439370993
 30
0.0
 11
181.0285819837223
 21
-797.2169059813701
 31
0.0
  0
LINE
  5
7ED
  8
VISIBLE
 10
181.0285819837223
 20
-797.2169059813701
 30
0.0
 11
181.0032456121946
 21
-797.2149664197382
 31
0.0
  0
ARC
  5
7EE
  8
VISIBLE
 10
180.9916789084423
 20
-797.5377394802741
 30
0.0
 40
0.322980242806642
 50
87.94766068570806
 51
271.1857880088807
  0
LINE
  5
7EF
  8
VISIBLE
 10
180.9983627996946
 20
-797.8606505560228
 30
0.0
 11
181.0361774698334
 21
-797.8606505560228
 31
0.0
  0
LINE
  5
7F0
  8
VISIBLE
 10
181.0361774698334
 20
-797.8606505560228
 30
0.0
 11
181.3099676174029
 21
-797.7587896619257
 31
0.0
  0
LINE
  5
7F1
  8
VISIBLE
 10
181.3099676174029
 20
-797.7587896619257
 30
0.0
 11
181.4053452215696
 21
-797.6552197834535
 31
0.0
  0
LINE
  5
7F2
  8
VISIBLE
 10
181.4053452215696
 20
-797.6552197834535
 30
0.0
 11
181.5929808552501
 21
-797.4014627305021
 31
0.0
  0
LINE
  5
7F3
  8
VISIBLE
 10
181.5929808552501
 20
-797.4014627305021
 30
0.0
 11
181.60602743779
 21
-797.3847163419607
 31
0.0
  0
LINE
  5
7F4
  8
VISIBLE
 10
181.60602743779
 20
-797.3847163419607
 30
0.0
 11
181.6195489501395
 21
-797.3684259686884
 31
0.0
  0
LINE
  5
7F5
  8
VISIBLE
 10
181.6195489501395
 20
-797.3684259686884
 30
0.0
 11
181.6335396702526
 21
-797.352596220111
 31
0.0
  0
LINE
  5
7F6
  8
VISIBLE
 10
181.6335396702526
 20
-797.352596220111
 30
0.0
 11
181.6479938760835
 21
-797.3372317056541
 31
0.0
  0
LINE
  5
7F7
  8
VISIBLE
 10
181.6479938760835
 20
-797.3372317056541
 30
0.0
 11
181.6629058455862
 21
-797.3223370347437
 31
0.0
  0
LINE
  5
7F8
  8
VISIBLE
 10
181.6629058455862
 20
-797.3223370347437
 30
0.0
 11
181.678269856715
 21
-797.3079168168058
 31
0.0
  0
LINE
  5
7F9
  8
VISIBLE
 10
181.678269856715
 20
-797.3079168168058
 30
0.0
 11
181.6940801874238
 21
-797.2939756612662
 31
0.0
  0
LINE
  5
7FA
  8
VISIBLE
 10
181.6940801874238
 20
-797.2939756612662
 30
0.0
 11
181.7103311156667
 21
-797.2805181775507
 31
0.0
  0
LINE
  5
7FB
  8
VISIBLE
 10
181.7103311156667
 20
-797.2805181775507
 30
0.0
 11
181.7186989786331
 21
-797.2739562624708
 31
0.0
  0
LINE
  5
7FC
  8
VISIBLE
 10
181.7186989786331
 20
-797.2739562624708
 30
0.0
 11
181.7272099324833
 21
-797.2675462994989
 31
0.0
  0
LINE
  5
7FD
  8
VISIBLE
 10
181.7272099324833
 20
-797.2675462994989
 30
0.0
 11
181.7358621096052
 21
-797.261289242309
 31
0.0
  0
LINE
  5
7FE
  8
VISIBLE
 10
181.7358621096052
 20
-797.261289242309
 30
0.0
 11
181.7446536423866
 21
-797.2551860445753
 31
0.0
  0
LINE
  5
7FF
  8
VISIBLE
 10
181.7446536423866
 20
-797.2551860445753
 30
0.0
 11
181.7535826632153
 21
-797.2492376599726
 31
0.0
  0
LINE
  5
800
  8
VISIBLE
 10
181.7535826632153
 20
-797.2492376599726
 30
0.0
 11
181.7626473044791
 21
-797.2434450421747
 31
0.0
  0
LINE
  5
801
  8
VISIBLE
 10
181.7626473044791
 20
-797.2434450421747
 30
0.0
 11
181.7718456985657
 21
-797.2378091448561
 31
0.0
  0
LINE
  5
802
  8
VISIBLE
 10
181.7718456985657
 20
-797.2378091448561
 30
0.0
 11
181.781175977863
 21
-797.2323309216913
 31
0.0
  0
LINE
  5
803
  8
VISIBLE
 10
181.781175977863
 20
-797.2323309216913
 30
0.0
 11
181.7906362747588
 21
-797.2270113263544
 31
0.0
  0
LINE
  5
804
  8
VISIBLE
 10
181.7906362747588
 20
-797.2270113263544
 30
0.0
 11
181.8002247216408
 21
-797.2218513125198
 31
0.0
  0
LINE
  5
805
  8
VISIBLE
 10
181.8002247216408
 20
-797.2218513125198
 30
0.0
 11
181.8099394508969
 21
-797.2168518338618
 31
0.0
  0
LINE
  5
806
  8
VISIBLE
 10
181.8099394508969
 20
-797.2168518338618
 30
0.0
 11
181.8197785949149
 21
-797.2120138440546
 31
0.0
  0
LINE
  5
807
  8
VISIBLE
 10
181.8197785949149
 20
-797.2120138440546
 30
0.0
 11
181.8297402860825
 21
-797.2073382967726
 31
0.0
  0
LINE
  5
808
  8
VISIBLE
 10
181.8297402860825
 20
-797.2073382967726
 30
0.0
 11
181.8398226567875
 21
-797.2028261456903
 31
0.0
  0
LINE
  5
809
  8
VISIBLE
 10
181.8398226567875
 20
-797.2028261456903
 30
0.0
 11
181.8500238394178
 21
-797.1984783444818
 31
0.0
  0
LINE
  5
80A
  8
VISIBLE
 10
181.8500238394178
 20
-797.1984783444818
 30
0.0
 11
181.8603419663612
 21
-797.1942958468215
 31
0.0
  0
LINE
  5
80B
  8
VISIBLE
 10
181.8603419663612
 20
-797.1942958468215
 30
0.0
 11
181.8709292943714
 21
-797.1903409892337
 31
0.0
  0
LINE
  5
80C
  8
VISIBLE
 10
181.8709292943714
 20
-797.1903409892337
 30
0.0
 11
181.8817547628056
 21
-797.186639987828
 31
0.0
  0
LINE
  5
80D
  8
VISIBLE
 10
181.8817547628056
 20
-797.186639987828
 30
0.0
 11
181.8928161861603
 21
-797.1831930214183
 31
0.0
  0
LINE
  5
80E
  8
VISIBLE
 10
181.8928161861603
 20
-797.1831930214183
 30
0.0
 11
181.9041113789318
 21
-797.1800002688186
 31
0.0
  0
LINE
  5
80F
  8
VISIBLE
 10
181.9041113789318
 20
-797.1800002688186
 30
0.0
 11
181.9156381556164
 21
-797.1770619088428
 31
0.0
  0
LINE
  5
810
  8
VISIBLE
 10
181.9156381556164
 20
-797.1770619088428
 30
0.0
 11
181.9273943307106
 21
-797.1743781203048
 31
0.0
  0
LINE
  5
811
  8
VISIBLE
 10
181.9273943307106
 20
-797.1743781203048
 30
0.0
 11
181.9393777187107
 21
-797.1719490820186
 31
0.0
  0
LINE
  5
812
  8
VISIBLE
 10
181.9393777187107
 20
-797.1719490820186
 30
0.0
 11
181.951586134113
 21
-797.1697749727981
 31
0.0
  0
LINE
  5
813
  8
VISIBLE
 10
181.951586134113
 20
-797.1697749727981
 30
0.0
 11
181.9640173914139
 21
-797.1678559714572
 31
0.0
  0
LINE
  5
814
  8
VISIBLE
 10
181.9640173914139
 20
-797.1678559714572
 30
0.0
 11
181.9766693051097
 21
-797.16619225681
 31
0.0
  0
LINE
  5
815
  8
VISIBLE
 10
181.9766693051097
 20
-797.16619225681
 30
0.0
 11
181.9895396896969
 21
-797.1647840076702
 31
0.0
  0
LINE
  5
816
  8
VISIBLE
 10
181.9895396896969
 20
-797.1647840076702
 30
0.0
 11
182.0026263596718
 21
-797.1636314028518
 31
0.0
  0
LINE
  5
817
  8
VISIBLE
 10
182.0026263596718
 20
-797.1636314028518
 30
0.0
 11
182.0159271295307
 21
-797.1627346211689
 31
0.0
  0
LINE
  5
818
  8
VISIBLE
 10
182.0159271295307
 20
-797.1627346211689
 30
0.0
 11
182.02943981377
 21
-797.1620938414352
 31
0.0
  0
LINE
  5
819
  8
VISIBLE
 10
182.02943981377
 20
-797.1620938414352
 30
0.0
 11
182.043162226886
 21
-797.1617092424648
 31
0.0
  0
LINE
  5
81A
  8
VISIBLE
 10
182.043162226886
 20
-797.1617092424648
 30
0.0
 11
182.0570921833751
 21
-797.1615810030715
 31
0.0
  0
LINE
  5
81B
  8
VISIBLE
 10
182.0570921833751
 20
-797.1615810030715
 30
0.0
 11
182.0693662036231
 21
-797.161707136434
 31
0.0
  0
LINE
  5
81C
  8
VISIBLE
 10
182.0693662036231
 20
-797.161707136434
 30
0.0
 11
182.0814267200335
 21
-797.1620852583665
 31
0.0
  0
LINE
  5
81D
  8
VISIBLE
 10
182.0814267200335
 20
-797.1620852583665
 30
0.0
 11
182.0932713086842
 21
-797.1627149516361
 31
0.0
  0
LINE
  5
81E
  8
VISIBLE
 10
182.0932713086842
 20
-797.1627149516361
 30
0.0
 11
182.1048975456527
 21
-797.1635957990106
 31
0.0
  0
LINE
  5
81F
  8
VISIBLE
 10
182.1048975456527
 20
-797.1635957990106
 30
0.0
 11
182.116303007017
 21
-797.1647273832575
 31
0.0
  0
LINE
  5
820
  8
VISIBLE
 10
182.116303007017
 20
-797.1647273832575
 30
0.0
 11
182.1274852688549
 21
-797.1661092871443
 31
0.0
  0
LINE
  5
821
  8
VISIBLE
 10
182.1274852688549
 20
-797.1661092871443
 30
0.0
 11
182.138441907244
 21
-797.1677410934385
 31
0.0
  0
LINE
  5
822
  8
VISIBLE
 10
182.138441907244
 20
-797.1677410934385
 30
0.0
 11
182.1491704982623
 21
-797.1696223849074
 31
0.0
  0
LINE
  5
823
  8
VISIBLE
 10
182.1491704982623
 20
-797.1696223849074
 30
0.0
 11
182.1596686179874
 21
-797.1717527443186
 31
0.0
  0
LINE
  5
824
  8
VISIBLE
 10
182.1596686179874
 20
-797.1717527443186
 30
0.0
 11
182.1699338424972
 21
-797.1741317544397
 31
0.0
  0
LINE
  5
825
  8
VISIBLE
 10
182.1699338424972
 20
-797.1741317544397
 30
0.0
 11
182.1799637478694
 21
-797.176758998038
 31
0.0
  0
LINE
  5
826
  8
VISIBLE
 10
182.1799637478694
 20
-797.176758998038
 30
0.0
 11
182.1897559101818
 21
-797.179634057881
 31
0.0
  0
LINE
  5
827
  8
VISIBLE
 10
182.1897559101818
 20
-797.179634057881
 30
0.0
 11
182.1993079055122
 21
-797.1827565167364
 31
0.0
  0
LINE
  5
828
  8
VISIBLE
 10
182.1993079055122
 20
-797.1827565167364
 30
0.0
 11
182.2086173099383
 21
-797.1861259573714
 31
0.0
  0
LINE
  5
829
  8
VISIBLE
 10
182.2086173099383
 20
-797.1861259573714
 30
0.0
 11
182.217681699538
 21
-797.1897419625537
 31
0.0
  0
LINE
  5
82A
  8
VISIBLE
 10
182.217681699538
 20
-797.1897419625537
 30
0.0
 11
182.226498650389
 21
-797.1936041150507
 31
0.0
  0
LINE
  5
82B
  8
VISIBLE
 10
182.226498650389
 20
-797.1936041150507
 30
0.0
 11
182.2351603377631
 21
-797.1977106101663
 31
0.0
  0
LINE
  5
82C
  8
VISIBLE
 10
182.2351603377631
 20
-797.1977106101663
 30
0.0
 11
182.2436172633142
 21
-797.2019879719301
 31
0.0
  0
LINE
  5
82D
  8
VISIBLE
 10
182.2436172633142
 20
-797.2019879719301
 30
0.0
 11
182.2518681157401
 21
-797.2064350877223
 31
0.0
  0
LINE
  5
82E
  8
VISIBLE
 10
182.2518681157401
 20
-797.2064350877223
 30
0.0
 11
182.2599115837386
 21
-797.2110508449227
 31
0.0
  0
LINE
  5
82F
  8
VISIBLE
 10
182.2599115837386
 20
-797.2110508449227
 30
0.0
 11
182.2677463560075
 21
-797.2158341309114
 31
0.0
  0
LINE
  5
830
  8
VISIBLE
 10
182.2677463560075
 20
-797.2158341309114
 30
0.0
 11
182.2753711212447
 21
-797.2207838330683
 31
0.0
  0
LINE
  5
831
  8
VISIBLE
 10
182.2753711212447
 20
-797.2207838330683
 30
0.0
 11
182.282784568148
 21
-797.2258988387733
 31
0.0
  0
LINE
  5
832
  8
VISIBLE
 10
182.282784568148
 20
-797.2258988387733
 30
0.0
 11
182.2899853854151
 21
-797.2311780354066
 31
0.0
  0
LINE
  5
833
  8
VISIBLE
 10
182.2899853854151
 20
-797.2311780354066
 30
0.0
 11
182.2969722617439
 21
-797.236620310348
 31
0.0
  0
LINE
  5
834
  8
VISIBLE
 10
182.2969722617439
 20
-797.236620310348
 30
0.0
 11
182.3037438858321
 21
-797.2422245509774
 31
0.0
  0
LINE
  5
835
  8
VISIBLE
 10
182.3037438858321
 20
-797.2422245509774
 30
0.0
 11
182.3102989463778
 21
-797.2479896446748
 31
0.0
  0
LINE
  5
836
  8
VISIBLE
 10
182.3102989463778
 20
-797.2479896446748
 30
0.0
 11
182.3166361320785
 21
-797.2539144788202
 31
0.0
  0
LINE
  5
837
  8
VISIBLE
 10
182.3166361320785
 20
-797.2539144788202
 30
0.0
 11
182.3227541316322
 21
-797.2599979407936
 31
0.0
  0
LINE
  5
838
  8
VISIBLE
 10
182.3227541316322
 20
-797.2599979407936
 30
0.0
 11
182.3286516337366
 21
-797.266238917975
 31
0.0
  0
LINE
  5
839
  8
VISIBLE
 10
182.3286516337366
 20
-797.266238917975
 30
0.0
 11
182.3343273270896
 21
-797.2726362977442
 31
0.0
  0
LINE
  5
83A
  8
VISIBLE
 10
182.3343273270896
 20
-797.2726362977442
 30
0.0
 11
182.339779900389
 21
-797.2791889674813
 31
0.0
  0
LINE
  5
83B
  8
VISIBLE
 10
182.339779900389
 20
-797.2791889674813
 30
0.0
 11
182.3449448746547
 21
-797.2857621975095
 31
0.0
  0
LINE
  5
83C
  8
VISIBLE
 10
182.3449448746547
 20
-797.2857621975095
 30
0.0
 11
182.3499412472484
 21
-797.2924548156411
 31
0.0
  0
LINE
  5
83D
  8
VISIBLE
 10
182.3499412472484
 20
-797.2924548156411
 30
0.0
 11
182.3547682631782
 21
-797.2992650933415
 31
0.0
  0
LINE
  5
83E
  8
VISIBLE
 10
182.3547682631782
 20
-797.2992650933415
 30
0.0
 11
182.3594251674517
 21
-797.3061913020761
 31
0.0
  0
LINE
  5
83F
  8
VISIBLE
 10
182.3594251674517
 20
-797.3061913020761
 30
0.0
 11
182.3639112050769
 21
-797.31323171331
 31
0.0
  0
LINE
  5
840
  8
VISIBLE
 10
182.3639112050769
 20
-797.31323171331
 30
0.0
 11
182.3682256210616
 21
-797.3203845985086
 31
0.0
  0
LINE
  5
841
  8
VISIBLE
 10
182.3682256210616
 20
-797.3203845985086
 30
0.0
 11
182.3723676604136
 21
-797.3276482291371
 31
0.0
  0
LINE
  5
842
  8
VISIBLE
 10
182.3723676604136
 20
-797.3276482291371
 30
0.0
 11
182.3763365681407
 21
-797.335020876661
 31
0.0
  0
LINE
  5
843
  8
VISIBLE
 10
182.3763365681407
 20
-797.335020876661
 30
0.0
 11
182.3801315892509
 21
-797.3425008125455
 31
0.0
  0
LINE
  5
844
  8
VISIBLE
 10
182.3801315892509
 20
-797.3425008125455
 30
0.0
 11
182.3837519687518
 21
-797.3500863082559
 31
0.0
  0
LINE
  5
845
  8
VISIBLE
 10
182.3837519687518
 20
-797.3500863082559
 30
0.0
 11
182.3871969516513
 21
-797.3577756352574
 31
0.0
  0
LINE
  5
846
  8
VISIBLE
 10
182.3871969516513
 20
-797.3577756352574
 30
0.0
 11
182.3904657829574
 21
-797.3655670650155
 31
0.0
  0
LINE
  5
847
  8
VISIBLE
 10
182.3904657829574
 20
-797.3655670650155
 30
0.0
 11
182.3935577076777
 21
-797.3734588689954
 31
0.0
  0
LINE
  5
848
  8
VISIBLE
 10
182.3935577076777
 20
-797.3734588689954
 30
0.0
 11
182.3964719708202
 21
-797.3814493186624
 31
0.0
  0
LINE
  5
849
  8
VISIBLE
 10
182.3964719708202
 20
-797.3814493186624
 30
0.0
 11
182.3992078173926
 21
-797.3895366854817
 31
0.0
  0
LINE
  5
84A
  8
VISIBLE
 10
182.3992078173926
 20
-797.3895366854817
 30
0.0
 11
182.4017644924029
 21
-797.3977192409188
 31
0.0
  0
LINE
  5
84B
  8
VISIBLE
 10
182.4017644924029
 20
-797.3977192409188
 30
0.0
 11
182.4040907954611
 21
-797.4058196611554
 31
0.0
  0
LINE
  5
84C
  8
VISIBLE
 10
182.4040907954611
 20
-797.4058196611554
 30
0.0
 11
182.4062681663802
 21
-797.4139354395222
 31
0.0
  0
LINE
  5
84D
  8
VISIBLE
 10
182.4062681663802
 20
-797.4139354395222
 30
0.0
 11
182.4082964462145
 21
-797.4220650859029
 31
0.0
  0
LINE
  5
84E
  8
VISIBLE
 10
182.4082964462145
 20
-797.4220650859029
 30
0.0
 11
182.4101754760183
 21
-797.4302071101815
 31
0.0
  0
LINE
  5
84F
  8
VISIBLE
 10
182.4101754760183
 20
-797.4302071101815
 30
0.0
 11
182.4119050968459
 21
-797.438360022242
 31
0.0
  0
LINE
  5
850
  8
VISIBLE
 10
182.4119050968459
 20
-797.438360022242
 30
0.0
 11
182.4134851497515
 21
-797.446522331968
 31
0.0
  0
LINE
  5
851
  8
VISIBLE
 10
182.4134851497515
 20
-797.446522331968
 30
0.0
 11
182.4149154757895
 21
-797.4546925492436
 31
0.0
  0
LINE
  5
852
  8
VISIBLE
 10
182.4149154757895
 20
-797.4546925492436
 30
0.0
 11
182.416195916014
 21
-797.4628691839528
 31
0.0
  0
LINE
  5
853
  8
VISIBLE
 10
182.416195916014
 20
-797.4628691839528
 30
0.0
 11
182.4173263114794
 21
-797.471050745979
 31
0.0
  0
LINE
  5
854
  8
VISIBLE
 10
182.4173263114794
 20
-797.471050745979
 30
0.0
 11
182.41830650324
 21
-797.4792357452066
 31
0.0
  0
LINE
  5
855
  8
VISIBLE
 10
182.41830650324
 20
-797.4792357452066
 30
0.0
 11
182.4191363323501
 21
-797.4874226915192
 31
0.0
  0
LINE
  5
856
  8
VISIBLE
 10
182.4191363323501
 20
-797.4874226915192
 30
0.0
 11
182.4198156398638
 21
-797.4956100948007
 31
0.0
  0
LINE
  5
857
  8
VISIBLE
 10
182.4198156398638
 20
-797.4956100948007
 30
0.0
 11
182.4203442668356
 21
-797.503796464935
 31
0.0
  0
LINE
  5
858
  8
VISIBLE
 10
182.4203442668356
 20
-797.503796464935
 30
0.0
 11
182.4207220543196
 21
-797.5119803118062
 31
0.0
  0
LINE
  5
859
  8
VISIBLE
 10
182.4207220543196
 20
-797.5119803118062
 30
0.0
 11
182.4209488433702
 21
-797.5201601452977
 31
0.0
  0
LINE
  5
85A
  8
VISIBLE
 10
182.4209488433702
 20
-797.5201601452977
 30
0.0
 11
182.4210244750417
 21
-797.5283344752938
 31
0.0
  0
LINE
  5
85B
  8
VISIBLE
 10
182.4210244750417
 20
-797.5283344752938
 30
0.0
 11
182.4208709864587
 21
-797.5382910735757
 31
0.0
  0
LINE
  5
85C
  8
VISIBLE
 10
182.4208709864587
 20
-797.5382910735757
 30
0.0
 11
182.420412004203
 21
-797.5488670833261
 31
0.0
  0
LINE
  5
85D
  8
VISIBLE
 10
182.420412004203
 20
-797.5488670833261
 30
0.0
 11
182.4196497535147
 21
-797.5600524909645
 31
0.0
  0
LINE
  5
85E
  8
VISIBLE
 10
182.4196497535147
 20
-797.5600524909645
 30
0.0
 11
182.4185864596338
 21
-797.5718372829109
 31
0.0
  0
LINE
  5
85F
  8
VISIBLE
 10
182.4185864596338
 20
-797.5718372829109
 30
0.0
 11
182.4172243478004
 21
-797.5842114455849
 31
0.0
  0
LINE
  5
860
  8
VISIBLE
 10
182.4172243478004
 20
-797.5842114455849
 30
0.0
 11
182.4155656432546
 21
-797.597164965406
 31
0.0
  0
LINE
  5
861
  8
VISIBLE
 10
182.4155656432546
 20
-797.597164965406
 30
0.0
 11
182.4113673569862
 21
-797.6247700221688
 31
0.0
  0
LINE
  5
862
  8
VISIBLE
 10
182.4113673569862
 20
-797.6247700221688
 30
0.0
 11
182.4100415907407
 21
-797.632276776832
 31
0.0
  0
LINE
  5
863
  8
VISIBLE
 10
182.4100415907407
 20
-797.632276776832
 30
0.0
 11
182.4084859889849
 21
-797.6397807499452
 31
0.0
  0
LINE
  5
864
  8
VISIBLE
 10
182.4084859889849
 20
-797.6397807499452
 30
0.0
 11
182.4067015053932
 21
-797.6472794778497
 31
0.0
  0
LINE
  5
865
  8
VISIBLE
 10
182.4067015053932
 20
-797.6472794778497
 30
0.0
 11
182.4046890936399
 21
-797.6547704968867
 31
0.0
  0
LINE
  5
866
  8
VISIBLE
 10
182.4046890936399
 20
-797.6547704968867
 30
0.0
 11
182.4024497073992
 21
-797.6622513433978
 31
0.0
  0
LINE
  5
867
  8
VISIBLE
 10
182.4024497073992
 20
-797.6622513433978
 30
0.0
 11
182.3999843003456
 21
-797.669719553724
 31
0.0
  0
LINE
  5
868
  8
VISIBLE
 10
182.3999843003456
 20
-797.669719553724
 30
0.0
 11
182.3972938261533
 21
-797.6771726642069
 31
0.0
  0
LINE
  5
869
  8
VISIBLE
 10
182.3972938261533
 20
-797.6771726642069
 30
0.0
 11
182.3943792384966
 21
-797.6846082111879
 31
0.0
  0
LINE
  5
86A
  8
VISIBLE
 10
182.3943792384966
 20
-797.6846082111879
 30
0.0
 11
182.39124149105
 21
-797.6920237310082
 31
0.0
  0
LINE
  5
86B
  8
VISIBLE
 10
182.39124149105
 20
-797.6920237310082
 30
0.0
 11
182.3878815374875
 21
-797.6994167600092
 31
0.0
  0
LINE
  5
86C
  8
VISIBLE
 10
182.3878815374875
 20
-797.6994167600092
 30
0.0
 11
182.3843003314837
 21
-797.7067848345322
 31
0.0
  0
LINE
  5
86D
  8
VISIBLE
 10
182.3843003314837
 20
-797.7067848345322
 30
0.0
 11
182.3804988267128
 21
-797.7141254909187
 31
0.0
  0
LINE
  5
86E
  8
VISIBLE
 10
182.3804988267128
 20
-797.7141254909187
 30
0.0
 11
182.3764779768491
 21
-797.72143626551
 31
0.0
  0
LINE
  5
86F
  8
VISIBLE
 10
182.3764779768491
 20
-797.72143626551
 30
0.0
 11
182.372238735567
 21
-797.7287146946474
 31
0.0
  0
LINE
  5
870
  8
VISIBLE
 10
182.372238735567
 20
-797.7287146946474
 30
0.0
 11
182.3677820565407
 21
-797.7359583146722
 31
0.0
  0
LINE
  5
871
  8
VISIBLE
 10
182.3677820565407
 20
-797.7359583146722
 30
0.0
 11
182.3631088934446
 21
-797.7431646619257
 31
0.0
  0
LINE
  5
872
  8
VISIBLE
 10
182.3631088934446
 20
-797.7431646619257
 30
0.0
 11
182.3606532880436
 21
-797.7467549489454
 31
0.0
  0
LINE
  5
873
  8
VISIBLE
 10
182.3606532880436
 20
-797.7467549489454
 30
0.0
 11
182.3581287002005
 21
-797.750310871404
 31
0.0
  0
LINE
  5
874
  8
VISIBLE
 10
182.3581287002005
 20
-797.750310871404
 30
0.0
 11
182.3528732129704
 21
-797.7573191756027
 31
0.0
  0
LINE
  5
875
  8
VISIBLE
 10
182.3528732129704
 20
-797.7573191756027
 30
0.0
 11
182.34734370332
 21
-797.7641886804518
 31
0.0
  0
LINE
  5
876
  8
VISIBLE
 10
182.34734370332
 20
-797.7641886804518
 30
0.0
 11
182.3415414428152
 21
-797.7709184918817
 31
0.0
  0
LINE
  5
877
  8
VISIBLE
 10
182.3415414428152
 20
-797.7709184918817
 30
0.0
 11
182.3354677030216
 21
-797.7775077158229
 31
0.0
  0
LINE
  5
878
  8
VISIBLE
 10
182.3354677030216
 20
-797.7775077158229
 30
0.0
 11
182.3291237555051
 21
-797.7839554582056
 31
0.0
  0
LINE
  5
879
  8
VISIBLE
 10
182.3291237555051
 20
-797.7839554582056
 30
0.0
 11
182.3225108718313
 21
-797.7902608249601
 31
0.0
  0
LINE
  5
87A
  8
VISIBLE
 10
182.3225108718313
 20
-797.7902608249601
 30
0.0
 11
182.3156303235661
 21
-797.7964229220169
 31
0.0
  0
LINE
  5
87B
  8
VISIBLE
 10
182.3156303235661
 20
-797.7964229220169
 30
0.0
 11
182.3084833822751
 21
-797.8024408553061
 31
0.0
  0
LINE
  5
87C
  8
VISIBLE
 10
182.3084833822751
 20
-797.8024408553061
 30
0.0
 11
182.3010713195242
 21
-797.8083137307581
 31
0.0
  0
LINE
  5
87D
  8
VISIBLE
 10
182.3010713195242
 20
-797.8083137307581
 30
0.0
 11
182.293395406879
 21
-797.8140406543032
 31
0.0
  0
LINE
  5
87E
  8
VISIBLE
 10
182.293395406879
 20
-797.8140406543032
 30
0.0
 11
182.2854569159055
 21
-797.819620731872
 31
0.0
  0
LINE
  5
87F
  8
VISIBLE
 10
182.2854569159055
 20
-797.819620731872
 30
0.0
 11
182.2772571181692
 21
-797.8250530693945
 31
0.0
  0
LINE
  5
880
  8
VISIBLE
 10
182.2772571181692
 20
-797.8250530693945
 30
0.0
 11
182.268797285236
 21
-797.8303367728012
 31
0.0
  0
LINE
  5
881
  8
VISIBLE
 10
182.268797285236
 20
-797.8303367728012
 30
0.0
 11
182.2600786886716
 21
-797.8354709480222
 31
0.0
  0
LINE
  5
882
  8
VISIBLE
 10
182.2600786886716
 20
-797.8354709480222
 30
0.0
 11
182.2511026000417
 21
-797.8404547009882
 31
0.0
  0
LINE
  5
883
  8
VISIBLE
 10
182.2511026000417
 20
-797.8404547009882
 30
0.0
 11
182.2465750196348
 21
-797.8428778024035
 31
0.0
  0
LINE
  5
884
  8
VISIBLE
 10
182.2465750196348
 20
-797.8428778024035
 30
0.0
 11
182.2419539096061
 21
-797.8452236586826
 31
0.0
  0
LINE
  5
885
  8
VISIBLE
 10
182.2419539096061
 20
-797.8452236586826
 30
0.0
 11
182.2372387235798
 21
-797.8474923517822
 31
0.0
  0
LINE
  5
886
  8
VISIBLE
 10
182.2372387235798
 20
-797.8474923517822
 30
0.0
 11
182.2324289151799
 21
-797.8496839636582
 31
0.0
  0
LINE
  5
887
  8
VISIBLE
 10
182.2324289151799
 20
-797.8496839636582
 30
0.0
 11
182.2275239380304
 21
-797.8517985762674
 31
0.0
  0
LINE
  5
888
  8
VISIBLE
 10
182.2275239380304
 20
-797.8517985762674
 30
0.0
 11
182.2225232457556
 21
-797.853836271566
 31
0.0
  0
LINE
  5
889
  8
VISIBLE
 10
182.2225232457556
 20
-797.853836271566
 30
0.0
 11
182.2174262919794
 21
-797.8557971315104
 31
0.0
  0
LINE
  5
88A
  8
VISIBLE
 10
182.2174262919794
 20
-797.8557971315104
 30
0.0
 11
182.212232530326
 21
-797.857681238057
 31
0.0
  0
LINE
  5
88B
  8
VISIBLE
 10
182.212232530326
 20
-797.857681238057
 30
0.0
 11
182.2069414144195
 21
-797.8594886731623
 31
0.0
  0
LINE
  5
88C
  8
VISIBLE
 10
182.2069414144195
 20
-797.8594886731623
 30
0.0
 11
182.201552397884
 21
-797.8612195187825
 31
0.0
  0
LINE
  5
88D
  8
VISIBLE
 10
182.201552397884
 20
-797.8612195187825
 30
0.0
 11
182.1960649343435
 21
-797.8628738568741
 31
0.0
  0
LINE
  5
88E
  8
VISIBLE
 10
182.1960649343435
 20
-797.8628738568741
 30
0.0
 11
182.1904784774222
 21
-797.8644517693934
 31
0.0
  0
LINE
  5
88F
  8
VISIBLE
 10
182.1904784774222
 20
-797.8644517693934
 30
0.0
 11
182.1790063979332
 21
-797.8673786455411
 31
0.0
  0
LINE
  5
890
  8
VISIBLE
 10
182.1790063979332
 20
-797.8673786455411
 30
0.0
 11
182.1671317884098
 21
-797.8700008028763
 31
0.0
  0
LINE
  5
891
  8
VISIBLE
 10
182.1671317884098
 20
-797.8700008028763
 30
0.0
 11
182.1548502778448
 21
-797.8723188970503
 31
0.0
  0
LINE
  5
892
  8
VISIBLE
 10
182.1548502778448
 20
-797.8723188970503
 30
0.0
 11
182.1421574952308
 21
-797.8743335837144
 31
0.0
  0
LINE
  5
893
  8
VISIBLE
 10
182.1421574952308
 20
-797.8743335837144
 30
0.0
 11
182.1290490695606
 21
-797.8760455185193
 31
0.0
  0
LINE
  5
894
  8
VISIBLE
 10
182.1290490695606
 20
-797.8760455185193
 30
0.0
 11
182.1155206298269
 21
-797.8774553571162
 31
0.0
  0
LINE
  5
895
  8
VISIBLE
 10
182.1155206298269
 20
-797.8774553571162
 30
0.0
 11
182.1015678050224
 21
-797.8785637551563
 31
0.0
  0
LINE
  5
896
  8
VISIBLE
 10
182.1015678050224
 20
-797.8785637551563
 30
0.0
 11
182.0871862241398
 21
-797.8793713682907
 31
0.0
  0
LINE
  5
897
  8
VISIBLE
 10
182.0871862241398
 20
-797.8793713682907
 30
0.0
 11
182.0723715161718
 21
-797.8798788521704
 31
0.0
  0
LINE
  5
898
  8
VISIBLE
 10
182.0723715161718
 20
-797.8798788521704
 30
0.0
 11
182.0571193101112
 21
-797.8800868624465
 31
0.0
  0
LINE
  5
899
  8
VISIBLE
 10
182.0571193101112
 20
-797.8800868624465
 30
0.0
 11
182.0538098483057
 21
-797.8806700872728
 31
0.0
  0
ARC
  5
89A
  8
VISIBLE
 10
221.0257396920547
 20
-669.1662984483146
 30
0.0
 40
8.499999999999972
 50
180.0
 51
0.0
  0
LINE
  5
89B
  8
VISIBLE
 10
229.5257396920547
 20
-669.1662984483146
 30
0.0
 11
229.5257396920547
 21
-662.1662984483146
 31
0.0
  0
ARC
  5
89C
  8
VISIBLE
 10
229.1507396920548
 20
-662.1662984483145
 30
0.0
 40
0.3749999999999432
 50
359.9999999999827
 51
90.00000000000868
  0
LINE
  5
89D
  8
VISIBLE
 10
229.1507396920547
 20
-661.7912984483146
 30
0.0
 11
212.9007396920547
 21
-661.7912984483146
 31
0.0
  0
ARC
  5
89E
  8
VISIBLE
 10
212.9007396920546
 20
-662.1662984483145
 30
0.0
 40
0.3749999999998863
 50
89.9999999999783
 51
180.0000000000174
  0
LINE
  5
89F
  8
VISIBLE
 10
212.5257396920547
 20
-662.1662984483146
 30
0.0
 11
212.5257396920547
 21
-669.1662984483146
 31
0.0
  0
ARC
  5
8A0
  8
VISIBLE
 10
208.0257396920548
 20
-661.0512984483146
 30
0.0
 40
1.0
 50
90.00000000000163
 51
269.9999999999984
  0
ARC
  5
8A1
  8
VISIBLE
 10
208.0257396920548
 20
-661.0512984483146
 30
0.0
 40
1.0
 50
269.9999999999984
 51
90.00000000000163
  0
ARC
  5
8A2
  8
VISIBLE
 10
234.0257396920548
 20
-661.0512984483146
 30
0.0
 40
1.0
 50
90.00000000000163
 51
269.9999999999984
  0
ARC
  5
8A3
  8
VISIBLE
 10
234.0257396920548
 20
-661.0512984483146
 30
0.0
 40
1.0
 50
269.9999999999984
 51
90.00000000000163
  0
LINE
  5
8A4
  8
VISIBLE
 62
     5
 10
210.2139629967581
 20
-663.1762984483146
 30
0.0
 11
210.0257396920547
 21
-663.1762984483146
 31
0.0
  0
LINE
  5
8A5
  8
VISIBLE
 62
     5
 10
210.0257396920547
 20
-663.1762984483146
 30
0.0
 11
210.0257396920547
 21
-680.1462984483146
 31
0.0
  0
LINE
  5
8A6
  8
VISIBLE
 62
     5
 10
210.0257396920547
 20
-680.1462984483146
 30
0.0
 11
210.3907396920547
 21
-680.1462984483146
 31
0.0
  0
LINE
  5
8A7
  8
VISIBLE
 62
     5
 10
210.3907396920547
 20
-680.1462984483146
 30
0.0
 11
210.3907396920548
 21
-663.3530751436112
 31
0.0
  0
ARC
  5
8A8
  8
VISIBLE
 62
     5
 10
210.3023513444064
 20
-663.264686795963
 30
0.0
 40
0.1249999999999407
 50
315.0000000000368
 51
134.9999999999632
  0
LINE
  5
8A9
  8
VISIBLE
 62
     5
 10
148.7297472900732
 20
-666.3770534583941
 30
0.0
 11
148.7297472900732
 21
-686.6055434382353
 31
0.0
  0
ARC
  5
8AA
  8
VISIBLE
 62
     5
 10
148.6413589424249
 20
-686.6939317858836
 30
0.0
 40
0.1250000000000211
 50
225.0000000000092
 51
45.0
  0
LINE
  5
8AB
  8
VISIBLE
 62
     5
 10
148.5529705947766
 20
-686.7823201335319
 30
0.0
 11
148.1765239853698
 21
-686.7823201335319
 31
0.0
  0
ARC
  5
8AC
  8
VISIBLE
 62
     5
 10
148.0881356377215
 20
-686.6939317858836
 30
0.0
 40
0.1250000000000211
 50
135.0
 51
315.0
  0
LINE
  5
8AD
  8
VISIBLE
 62
     5
 10
147.9997472900732
 20
-686.6055434382353
 30
0.0
 11
147.9997472900732
 21
-666.3770534583941
 31
0.0
  0
ARC
  5
8AE
  8
VISIBLE
 62
     5
 10
148.0881356377215
 20
-666.2886651107458
 30
0.0
 40
0.125000000000001
 50
45.00000000000921
 51
225.0000000000092
  0
LINE
  5
8AF
  8
VISIBLE
 62
     5
 10
148.1765239853698
 20
-666.2002767630975
 30
0.0
 11
148.5529705952156
 21
-666.2002767626584
 31
0.0
  0
ARC
  5
8B0
  8
VISIBLE
 62
     5
 10
148.6413589423152
 20
-666.2886651108556
 30
0.0
 40
0.1250000000000613
 50
315.0000000711893
 51
134.9999996442191
  0
LINE
  5
8B1
  8
VISIBLE
 62
     5
 10
190.1250913153196
 20
-647.7058079231823
 30
0.0
 11
190.1250913153196
 21
-647.5215629332616
 31
0.0
  0
ARC
  5
8B2
  8
VISIBLE
 62
     5
 10
190.0467029676713
 20
-647.4241962708303
 30
0.0
 40
0.1250000000002422
 50
225.0000000001289
 51
308.8369872019595
  0
LINE
  5
8B3
  8
VISIBLE
 62
     5
 10
189.958314620023
 20
-647.512584618479
 30
0.0
 11
173.1550913153196
 21
-647.512584618479
 31
0.0
  0
LINE
  5
8B4
  8
VISIBLE
 62
     5
 10
173.1550913153196
 20
-647.512584618479
 30
0.0
 11
173.1550913153196
 21
-647.6818296083995
 31
0.0
  0
ARC
  5
8B5
  8
VISIBLE
 62
     5
 10
173.0767029676714
 20
-647.7791962708305
 30
0.0
 40
0.1249999999998875
 50
304.1973285155898
 51
51.16301279799321
  0
LINE
  5
8B6
  8
VISIBLE
 62
     5
 10
173.1469585693736
 20
-647.8825846184789
 30
0.0
 11
189.948314620023
 21
-647.882584618479
 31
0.0
  0
ARC
  5
8B7
  8
VISIBLE
 62
     5
 10
190.0367029676713
 20
-647.7941962708306
 30
0.0
 40
0.1250000000000211
 50
225.0
 51
45.0
  0
LINE
  5
8B8
  8
VISIBLE
 62
     5
 10
162.7497472900729
 20
-666.3770534583941
 30
0.0
 11
162.7497472900729
 21
-686.6055434382353
 31
0.0
  0
ARC
  5
8B9
  8
VISIBLE
 62
     5
 10
162.6613589424247
 20
-686.6939317858836
 30
0.0
 40
0.1249999999999809
 50
225.0000000000184
 51
45.00000000001843
  0
LINE
  5
8BA
  8
VISIBLE
 62
     5
 10
162.5729705947764
 20
-686.7823201335319
 30
0.0
 11
162.1965239853696
 21
-686.7823201335319
 31
0.0
  0
ARC
  5
8BB
  8
VISIBLE
 62
     5
 10
162.1081356377213
 20
-686.6939317858836
 30
0.0
 40
0.1250000000000211
 50
135.0
 51
315.0
  0
LINE
  5
8BC
  8
VISIBLE
 62
     5
 10
162.0197472900729
 20
-686.6055434382353
 30
0.0
 11
162.019747290512
 21
-666.3770534588332
 31
0.0
  0
ARC
  5
8BD
  8
VISIBLE
 62
     5
 10
162.1081356376115
 20
-666.288665110636
 30
0.0
 40
0.1250000000000412
 50
44.99999992881067
 51
225.0000003557901
  0
LINE
  5
8BE
  8
VISIBLE
 62
     5
 10
162.1965239853696
 20
-666.2002767630975
 30
0.0
 11
162.5729705947764
 21
-666.2002767630975
 31
0.0
  0
ARC
  5
8BF
  8
VISIBLE
 62
     5
 10
162.6613589424247
 20
-666.2886651107458
 30
0.0
 40
0.1249999999999809
 50
314.9999999999816
 51
134.9999999999816
  0
ARC
  5
8C0
  8
VISIBLE
 62
     5
 10
164.239747290073
 20
-685.9912984483146
 30
0.0
 40
0.125
 50
180.0
 51
0.0
  0
LINE
  5
8C1
  8
VISIBLE
 62
     5
 10
164.114747290073
 20
-685.9912984483146
 30
0.0
 11
164.114747290073
 21
-666.9912984483146
 31
0.0
  0
ARC
  5
8C2
  8
VISIBLE
 62
     5
 10
164.239747290073
 20
-666.9912984483146
 30
0.0
 40
0.1250000000000284
 50
0.0
 51
180.0
  0
LINE
  5
8C3
  8
VISIBLE
 62
     5
 10
164.364747290073
 20
-666.9912984483146
 30
0.0
 11
164.364747290073
 21
-685.9912984483146
 31
0.0
  0
LINE
  5
8C4
  8
VISIBLE
 10
163.739747290073
 20
-665.4812984483146
 30
0.0
 11
146.7397472900732
 21
-665.4812984483146
 31
0.0
  0
LINE
  5
8C5
  8
VISIBLE
 10
146.7397472900732
 20
-665.4812984483146
 30
0.0
 11
146.7397472900732
 21
-687.5012984483146
 31
0.0
  0
LINE
  5
8C6
  8
VISIBLE
 10
146.7397472900732
 20
-687.5012984483146
 30
0.0
 11
163.739747290073
 21
-687.5012984483146
 31
0.0
  0
ARC
  5
8C7
  8
VISIBLE
 10
163.739747290073
 20
-686.0012984483147
 30
0.0
 40
1.499999999999886
 50
269.9999999999968
 51
0.0000000000043425
  0
LINE
  5
8C8
  8
VISIBLE
 10
165.239747290073
 20
-686.0012984483146
 30
0.0
 11
165.239747290073
 21
-666.9812984483146
 31
0.0
  0
ARC
  5
8C9
  8
VISIBLE
 10
163.7397472900729
 20
-666.9812984483148
 30
0.0
 40
1.500000000000057
 50
0.0000000000043425
 51
89.99999999999784
  0
LINE
  5
8CA
  8
VISIBLE
 62
     5
 10
231.6607396920547
 20
-663.3530751436112
 30
0.0
 11
231.6607396920547
 21
-680.1462984483146
 31
0.0
  0
LINE
  5
8CB
  8
VISIBLE
 62
     5
 10
231.6607396920547
 20
-680.1462984483146
 30
0.0
 11
232.0257396920547
 21
-680.1462984483146
 31
0.0
  0
LINE
  5
8CC
  8
VISIBLE
 62
     5
 10
232.0257396920547
 20
-680.1462984483146
 30
0.0
 11
232.0257396920547
 21
-663.1762984483146
 31
0.0
  0
LINE
  5
8CD
  8
VISIBLE
 62
     5
 10
232.0257396920547
 20
-663.1762984483146
 30
0.0
 11
231.8375163873514
 21
-663.1762984483146
 31
0.0
  0
ARC
  5
8CE
  8
VISIBLE
 62
     5
 10
231.7491280397031
 20
-663.2646867959629
 30
0.0
 40
0.1250000000000211
 50
45.0
 51
225.0
  0
LINE
  5
8CF
  8
VISIBLE
 10
231.6607396920547
 20
-680.1462984483146
 30
0.0
 11
210.3907396920547
 21
-680.1462984483146
 31
0.0
  0
ARC
  5
8D0
  8
VISIBLE
 10
209.9007396920545
 20
-663.1762984483148
 30
0.0
 40
0.125000000000199
 50
0.0000000001042204
 51
89.99999999990881
  0
LINE
  5
8D1
  8
VISIBLE
 10
209.9007396920547
 20
-663.0512984483146
 30
0.0
 11
208.0257396920547
 21
-663.0512984483146
 31
0.0
  0
ARC
  5
8D2
  8
VISIBLE
 10
208.0257396920548
 20
-661.0512984483146
 30
0.0
 40
2.0
 50
90.00000000000163
 51
269.9999999999984
  0
LINE
  5
8D3
  8
VISIBLE
 10
208.0257396920547
 20
-659.0512984483146
 30
0.0
 11
210.5589629967581
 21
-659.0512984483146
 31
0.0
  0
ARC
  5
8D4
  8
VISIBLE
 10
210.6473513444064
 20
-658.9629101006662
 30
0.0
 40
0.1250000000000211
 50
225.0
 51
44.99999999999079
  0
LINE
  5
8D5
  8
VISIBLE
 10
210.7357396920547
 20
-658.874521753018
 30
0.0
 11
210.7357396920547
 21
-658.6912984483147
 31
0.0
  0
LINE
  5
8D6
  8
VISIBLE
 10
210.7357396920547
 20
-658.6912984483147
 30
0.0
 11
231.3157396920547
 21
-658.6912984483147
 31
0.0
  0
LINE
  5
8D7
  8
VISIBLE
 10
231.3157396920547
 20
-658.6912984483147
 30
0.0
 11
231.3157396920547
 21
-658.874521753018
 31
0.0
  0
ARC
  5
8D8
  8
VISIBLE
 10
231.404128039703
 20
-658.9629101006662
 30
0.0
 40
0.1249999999999206
 50
135.0000000000276
 51
315.0000000000184
  0
LINE
  5
8D9
  8
VISIBLE
 10
231.4925163873514
 20
-659.0512984483146
 30
0.0
 11
234.0257396920547
 21
-659.0512984483146
 31
0.0
  0
ARC
  5
8DA
  8
VISIBLE
 10
234.0257396920548
 20
-661.0512984483146
 30
0.0
 40
2.0
 50
269.9999999999992
 51
90.00000000000081
  0
LINE
  5
8DB
  8
VISIBLE
 10
234.0257396920547
 20
-663.0512984483146
 30
0.0
 11
232.1507396920547
 21
-663.0512984483146
 31
0.0
  0
ARC
  5
8DC
  8
VISIBLE
 10
232.150739692055
 20
-663.1762984483149
 30
0.0
 40
0.1250000000003411
 50
90.00000000010422
 51
179.9999999998437
  0
ARC
  5
8DD
  8
VISIBLE
 10
173.0767029676713
 20
-647.7791962708305
 30
0.0
 40
0.1250000000000321
 50
225.0000000000553
 51
304.1973285156437
  0
LINE
  5
8DE
  8
VISIBLE
 10
172.988314620023
 20
-647.867584618479
 30
0.0
 11
169.0200913153196
 21
-647.867584618479
 31
0.0
  0
LINE
  5
8DF
  8
VISIBLE
 10
169.0200913153196
 20
-647.867584618479
 30
0.0
 11
169.0200913153196
 21
-661.1675846184787
 31
0.0
  0
LINE
  5
8E0
  8
VISIBLE
 10
169.0200913153196
 20
-661.8975846184787
 30
0.0
 11
169.0200913153196
 21
-663.1575846184787
 31
0.0
  0
LINE
  5
8E1
  8
VISIBLE
 10
169.0200913153196
 20
-663.1575846184787
 30
0.0
 11
186.1372378947004
 21
-663.1575846184787
 31
0.0
  0
ARC
  5
8E2
  8
VISIBLE
 10
186.1372378947022
 20
-669.1575846184667
 30
0.0
 40
5.999999999987949
 50
75.9999999999894
 51
90.00000000001765
  0
LINE
  5
8E3
  8
VISIBLE
 10
187.5887692682984
 20
-663.3358102608227
 30
0.0
 11
205.7612789672754
 21
-667.866725810717
 31
0.0
  0
ARC
  5
8E4
  8
VISIBLE
 10
206.0032008628751
 20
-666.896430084441
 30
0.0
 40
0.9999999999999459
 50
255.999999999998
 51
352.5000000000008
  0
LINE
  5
8E5
  8
VISIBLE
 10
206.9946457242489
 20
-667.026956276661
 30
0.0
 11
207.1410077708113
 21
-665.9152261595381
 31
0.0
  0
ARC
  5
8E6
  8
VISIBLE
 10
206.1495629094371
 20
-665.7846999673181
 30
0.0
 40
1.000000000000388
 50
352.5000000000106
 51
66.84400851589776
  0
LINE
  5
8E7
  8
VISIBLE
 10
206.5427987210102
 20
-664.8652623150017
 30
0.0
 11
193.0533120659457
 21
-659.095921436759
 31
0.0
  0
ARC
  5
8E8
  8
VISIBLE
 10
193.4465478775184
 20
-658.1764837844428
 30
0.0
 40
0.9999999999999923
 50
180.0
 51
246.8440085159151
  0
LINE
  5
8E9
  8
VISIBLE
 10
192.4465478775184
 20
-658.1764837844428
 30
0.0
 11
192.4465478775184
 21
-653.6869607343563
 31
0.0
  0
ARC
  5
8EA
  8
VISIBLE
 10
193.4465478775187
 20
-653.6869607343564
 30
0.0
 40
1.000000000000227
 50
99.15599148408744
 51
179.9999999999935
  0
LINE
  5
8EB
  8
VISIBLE
 10
193.287424949865
 20
-652.6997019567832
 30
0.0
 11
208.483789668193
 21
-650.2504048741939
 31
0.0
  0
ARC
  5
8EC
  8
VISIBLE
 10
208.3246667405392
 20
-649.2631460966205
 30
0.0
 40
1.000000000000424
 50
279.1559914840934
 51
352.4999999999779
  0
LINE
  5
8ED
  8
VISIBLE
 10
209.3161116019133
 20
-649.393672288841
 30
0.0
 11
209.4616615317472
 21
-648.288110810699
 31
0.0
  0
ARC
  5
8EE
  8
VISIBLE
 10
208.4702166703734
 20
-648.157584618479
 30
0.0
 40
0.999999999999952
 50
352.5000000000008
 51
90.00000000000325
  0
LINE
  5
8EF
  8
VISIBLE
 10
208.4702166703734
 20
-647.157584618479
 30
0.0
 11
190.1250913153196
 21
-647.157584618479
 31
0.0
  0
LINE
  5
8F0
  8
VISIBLE
 10
190.1250913153196
 20
-647.157584618479
 30
0.0
 11
190.1250913153196
 21
-647.3268296083996
 31
0.0
  0
LINE
  5
8F1
  8
VISIBLE
 10
190.1250913153196
 20
-647.3268296083996
 30
0.0
 11
190.1250913153196
 21
-647.5215629332616
 31
0.0
  0
LINE
  5
8F2
  8
VISIBLE
 10
214.3181853188082
 20
-640.6152767630974
 30
0.0
 11
214.3181853188082
 21
-640.4205434382353
 31
0.0
  0
LINE
  5
8F3
  8
VISIBLE
 10
214.3181853188082
 20
-640.4205434382353
 30
0.0
 11
214.3181853188082
 21
-640.2512984483146
 31
0.0
  0
LINE
  5
8F4
  8
VISIBLE
 10
214.3181853188082
 20
-640.2512984483146
 30
0.0
 11
195.9730599637545
 21
-640.2512984483146
 31
0.0
  0
ARC
  5
8F5
  8
VISIBLE
 10
195.9730599637545
 20
-641.2512984483146
 30
0.0
 40
1.0
 50
90.0
 51
187.4999999999988
  0
LINE
  5
8F6
  8
VISIBLE
 10
194.9816151023807
 20
-641.3818246405347
 30
0.0
 11
195.1271650322145
 21
-642.4873861186768
 31
0.0
  0
ARC
  5
8F7
  8
VISIBLE
 10
196.1186098935882
 20
-642.3568599264569
 30
0.0
 40
0.9999999999998809
 50
187.4999999999932
 51
260.8440085159265
  0
LINE
  5
8F8
  8
VISIBLE
 10
195.9594869659348
 20
-643.3441187040297
 30
0.0
 11
211.1558516842629
 21
-645.7934157866189
 31
0.0
  0
ARC
  5
8F9
  8
VISIBLE
 10
210.9967287566091
 20
-646.7806745641922
 30
0.0
 40
1.000000000000303
 50
0.0000000000130276
 51
80.84400851590878
  0
LINE
  5
8FA
  8
VISIBLE
 10
211.9967287566094
 20
-646.7806745641919
 30
0.0
 11
211.9967287566094
 21
-651.2701976142786
 31
0.0
  0
ARC
  5
8FB
  8
VISIBLE
 10
210.9967287566097
 20
-651.2701976142787
 30
0.0
 40
0.9999999999997442
 50
293.1559914840755
 51
0.0000000000065138
  0
LINE
  5
8FC
  8
VISIBLE
 10
211.3899645681821
 20
-652.1896352665948
 30
0.0
 11
197.9004779131177
 21
-657.9589761448375
 31
0.0
  0
ARC
  5
8FD
  8
VISIBLE
 10
198.2937137246903
 20
-658.8784137971537
 30
0.0
 40
0.9999999999999701
 50
113.1559914840819
 51
187.4999999999992
  0
LINE
  5
8FE
  8
VISIBLE
 10
197.3022688633166
 20
-659.0089399893737
 30
0.0
 11
197.4486309098789
 21
-660.1206701064968
 31
0.0
  0
ARC
  5
8FF
  8
VISIBLE
 10
198.4400757712528
 20
-659.9901439142767
 30
0.0
 40
1.000000000000023
 50
187.5000000000052
 51
284.0000000000004
  0
LINE
  5
900
  8
VISIBLE
 10
198.6819976668524
 20
-660.9604396405527
 30
0.0
 11
216.8545073658294
 21
-656.4295240906584
 31
0.0
  0
ARC
  5
901
  8
VISIBLE
 10
218.3060387394289
 20
-662.251298448325
 30
0.0
 40
6.000000000010575
 50
90.0000000000133
 51
103.9999999999886
  0
LINE
  5
902
  8
VISIBLE
 10
218.3060387394275
 20
-656.2512984483144
 30
0.0
 11
235.4231853188082
 21
-656.2512984483144
 31
0.0
  0
LINE
  5
903
  8
VISIBLE
 10
235.4231853188082
 20
-656.2512984483144
 30
0.0
 11
235.4231853188082
 21
-654.9912984483144
 31
0.0
  0
LINE
  5
904
  8
VISIBLE
 10
235.4231853188082
 20
-654.2612984483144
 30
0.0
 11
235.4231853188082
 21
-640.9612984483147
 31
0.0
  0
LINE
  5
905
  8
VISIBLE
 10
235.4231853188082
 20
-640.9612984483147
 30
0.0
 11
231.4549620141049
 21
-640.9612984483147
 31
0.0
  0
ARC
  5
906
  8
VISIBLE
 10
231.3665736664565
 20
-640.8729101006664
 30
0.0
 40
0.1249999999999407
 50
235.8026714843486
 51
315.0000000000368
  0
LINE
  5
907
  8
VISIBLE
 10
214.8114086235116
 20
-643.1112984483146
 30
0.0
 11
213.1649620141049
 21
-643.1112984483146
 31
0.0
  0
ARC
  5
908
  8
VISIBLE
 10
213.0765736664565
 20
-643.0229101006663
 30
0.0
 40
0.1250000000000412
 50
134.9999999999447
 51
315.0000000000092
  0
LINE
  5
909
  8
VISIBLE
 10
212.9881853188082
 20
-642.9345217530179
 30
0.0
 11
212.9881853183692
 21
-642.5680751431722
 31
0.0
  0
ARC
  5
90A
  8
VISIBLE
 10
213.0765736665663
 20
-642.4796867960727
 30
0.0
 40
0.1250000000000211
 50
45.00000007110643
 51
224.9999996442744
  0
LINE
  5
90B
  8
VISIBLE
 10
213.1649620141049
 20
-642.3912984483147
 30
0.0
 11
214.8114086230725
 21
-642.3912984487536
 31
0.0
  0
ARC
  5
90C
  8
VISIBLE
 10
214.8997969712697
 20
-642.4796867958532
 30
0.0
 40
0.1250000000001216
 50
314.9999999288476
 51
135.0000003556979
  0
LINE
  5
90D
  8
VISIBLE
 10
214.9881853188082
 20
-642.5680751436114
 30
0.0
 11
214.9881853183692
 21
-642.934521752579
 31
0.0
  0
ARC
  5
90E
  8
VISIBLE
 10
214.8997969712697
 20
-643.0229101007761
 30
0.0
 40
0.1249999999999608
 50
224.9999999288291
 51
45.00000035575322
  0
LINE
  5
90F
  8
VISIBLE
 62
     5
 10
231.2881853188082
 20
-640.6062984483146
 30
0.0
 11
214.4849620141048
 21
-640.6062984483146
 31
0.0
  0
ARC
  5
910
  8
VISIBLE
 62
     5
 10
214.3965736664565
 20
-640.5179101006669
 30
0.0
 40
0.1249999999995991
 50
231.163012797832
 51
315.000000000175
  0
LINE
  5
911
  8
VISIBLE
 62
     5
 10
214.3181853188082
 20
-640.6152767630974
 30
0.0
 11
214.3181853188082
 21
-640.7995217530181
 31
0.0
  0
ARC
  5
912
  8
VISIBLE
 62
     5
 10
214.4065736664566
 20
-640.8879101006664
 30
0.0
 40
0.1250000000000211
 50
135.0
 51
315.0000000000092
  0
LINE
  5
913
  8
VISIBLE
 62
     5
 10
214.4949620141049
 20
-640.9762984483147
 30
0.0
 11
231.2963180647543
 21
-640.9762984483147
 31
0.0
  0
ARC
  5
914
  8
VISIBLE
 62
     5
 10
231.3665736664564
 20
-640.8729101006663
 30
0.0
 40
0.1249999999999362
 50
128.8369872019538
 51
235.802671484421
  0
LINE
  5
915
  8
VISIBLE
 62
     5
 10
231.2881853188082
 20
-640.7755434382352
 30
0.0
 11
231.2881853188082
 21
-640.6062984483146
 31
0.0
  0
LINE
  5
916
  8
VISIBLE
 10
191.4550913157587
 20
-649.4743613133365
 30
0.0
 11
191.4550913153196
 21
-649.8408079231822
 31
0.0
  0
ARC
  5
917
  8
VISIBLE
 10
191.3667029676713
 20
-649.9291962708305
 30
0.0
 40
0.125000000000001
 50
225.0000000000092
 51
45.00000000000921
  0
LINE
  5
918
  8
VISIBLE
 10
191.278314620023
 20
-650.0175846184788
 30
0.0
 11
189.6318680106162
 21
-650.0175846184788
 31
0.0
  0
ARC
  5
919
  8
VISIBLE
 10
189.5434796628581
 20
-649.9291962709405
 30
0.0
 40
0.1249999999999407
 50
134.9999996441823
 51
315.0000000712262
  0
LINE
  5
91A
  8
VISIBLE
 10
189.4550913157587
 20
-649.8408079227432
 30
0.0
 11
189.4550913153196
 21
-649.4743613137756
 31
0.0
  0
ARC
  5
91B
  8
VISIBLE
 10
189.5434796628583
 20
-649.3859729660174
 30
0.0
 40
0.1250000000001015
 50
44.99999964430205
 51
225.0000000711525
  0
LINE
  5
91C
  8
VISIBLE
 10
189.6318680110553
 20
-649.2975846189179
 30
0.0
 11
191.278314620023
 21
-649.2975846184789
 31
0.0
  0
ARC
  5
91D
  8
VISIBLE
 10
191.3667029675615
 20
-649.385972966237
 30
0.0
 40
0.1249999999999809
 50
315.0000003557256
 51
134.9999999288659
  0
ARC
  5
91E
  8
VISIBLE
 10
189.543479662968
 20
-661.255972966127
 30
0.0
 40
0.1250000000001216
 50
135.000000000046
 51
224.999999999954
  0
ARC
  5
91F
  8
VISIBLE
 10
189.543479662968
 20
-661.2559729661273
 30
0.0
 40
0.1250000000002221
 50
45.00000000006448
 51
134.9999999999447
  0
LINE
  5
920
  8
VISIBLE
 10
189.6318680106164
 20
-661.1675846184787
 30
0.0
 11
191.2783146200229
 21
-661.1675846184787
 31
0.0
  0
ARC
  5
921
  8
VISIBLE
 10
191.3667029677812
 20
-661.2559729660173
 30
0.0
 40
0.1250000000001618
 50
314.9999996442652
 51
135.0000000711801
  0
LINE
  5
922
  8
VISIBLE
 10
191.4550913148807
 20
-661.3443613142144
 30
0.0
 11
191.4550913153196
 21
-661.7208079231821
 31
0.0
  0
ARC
  5
923
  8
VISIBLE
 10
191.3667029675615
 20
-661.8091962707206
 30
0.0
 40
0.125000000000001
 50
225.0000003557901
 51
44.99999992881988
  0
LINE
  5
924
  8
VISIBLE
 10
191.278314620462
 20
-661.8975846189178
 30
0.0
 11
189.6318680106162
 21
-661.8975846184787
 31
0.0
  0
ARC
  5
925
  8
VISIBLE
 10
189.5434796629679
 20
-661.8091962708307
 30
0.0
 40
0.1249999999998
 50
224.9999999998894
 51
315.0000000001198
  0
ARC
  5
926
  8
VISIBLE
 10
189.5434796629678
 20
-661.8091962708303
 30
0.0
 40
0.125000000000001
 50
134.9999999999908
 51
225.0000000000829
  0
LINE
  5
927
  8
VISIBLE
 10
189.4550913153195
 20
-661.7208079231821
 30
0.0
 11
189.4550913153195
 21
-661.3443613137754
 31
0.0
  0
LINE
  5
928
  8
VISIBLE
 62
     5
 10
189.4550913153195
 20
-661.1675846184787
 30
0.0
 11
179.7700913153196
 21
-661.1675846184787
 31
0.0
  0
LINE
  5
929
  8
VISIBLE
 62
     5
 10
179.7700913153196
 20
-661.1675846184787
 30
0.0
 11
179.7700913153196
 21
-654.8975846184787
 31
0.0
  0
LINE
  5
92A
  8
VISIBLE
 62
     5
 10
179.7700913153196
 20
-654.8975846184787
 30
0.0
 11
189.2283146200229
 21
-654.8975846184787
 31
0.0
  0
ARC
  5
92B
  8
VISIBLE
 62
     5
 10
189.3167029676712
 20
-654.8091962708304
 30
0.0
 40
0.125000000000001
 50
225.0000000000092
 51
45.0
  0
LINE
  5
92C
  8
VISIBLE
 62
     5
 10
189.4050913153196
 20
-654.7208079231821
 30
0.0
 11
189.4050913153196
 21
-654.3343613137754
 31
0.0
  0
ARC
  5
92D
  8
VISIBLE
 62
     5
 10
189.3167029676713
 20
-654.245972966127
 30
0.0
 40
0.1249999999999809
 50
314.9999999999816
 51
134.9999999999908
  0
LINE
  5
92E
  8
VISIBLE
 62
     5
 10
189.228314620023
 20
-654.1575846184787
 30
0.0
 11
179.1968680106162
 21
-654.1575846184787
 31
0.0
  0
ARC
  5
92F
  8
VISIBLE
 62
     5
 10
179.1084796629679
 20
-654.2459729661272
 30
0.0
 40
0.1250000000000814
 50
45.00000000004606
 51
224.9999997153532
  0
LINE
  5
930
  8
VISIBLE
 62
     5
 10
179.0200913148805
 20
-654.3343613133363
 30
0.0
 11
179.0200913153196
 21
-661.1675846184787
 31
0.0
  0
LINE
  5
931
  8
VISIBLE
 62
     5
 10
179.0200913153196
 20
-661.1675846184787
 30
0.0
 11
169.0200913153195
 21
-661.1675846184787
 31
0.0
  0
LINE
  5
932
  8
VISIBLE
 62
     5
 10
169.0200913153195
 20
-661.1675846184787
 30
0.0
 11
169.0200913153196
 21
-661.8975846184787
 31
0.0
  0
LINE
  5
933
  8
VISIBLE
 62
     5
 10
169.0200913153196
 20
-661.8975846184787
 30
0.0
 11
189.4550913153195
 21
-661.8975846184787
 31
0.0
  0
ARC
  5
934
  8
VISIBLE
 10
213.0765736665663
 20
-654.9029101005564
 30
0.0
 40
0.1250000000000211
 50
135.0000000711801
 51
314.9999996442744
  0
LINE
  5
935
  8
VISIBLE
 10
212.9881853188082
 20
-654.8145217530179
 30
0.0
 11
212.9881853192472
 21
-654.4380751440501
 31
0.0
  0
ARC
  5
936
  8
VISIBLE
 10
213.0765736663467
 20
-654.3496867958529
 30
0.0
 40
0.1250000000000613
 50
44.99999992879225
 51
225.0000003557809
  0
LINE
  5
937
  8
VISIBLE
 10
213.1649620141049
 20
-654.2612984483144
 30
0.0
 11
214.8114086235115
 21
-654.2612984483144
 31
0.0
  0
ARC
  5
938
  8
VISIBLE
 10
214.8997969711598
 20
-654.3496867959628
 30
0.0
 40
0.1250000000001015
 50
45.00000000002764
 51
134.9999999999632
  0
ARC
  5
939
  8
VISIBLE
 10
214.8997969711599
 20
-654.3496867959627
 30
0.0
 40
0.1250000000000412
 50
315.0000000000092
 51
44.99999999999079
  0
LINE
  5
93A
  8
VISIBLE
 10
214.9881853188083
 20
-654.4380751436111
 30
0.0
 11
214.9881853188083
 21
-654.8145217530179
 31
0.0
  0
ARC
  5
93B
  8
VISIBLE
 10
214.8997969711602
 20
-654.9029101006662
 30
0.0
 40
0.1249999999998201
 50
314.9999999999632
 51
45.00000000009212
  0
ARC
  5
93C
  8
VISIBLE
 10
214.89979697116
 20
-654.9029101006661
 30
0.0
 40
0.125000000000001
 50
225.0
 51
314.9999999999908
  0
LINE
  5
93D
  8
VISIBLE
 10
214.8114086235116
 20
-654.9912984483144
 30
0.0
 11
213.1649620136659
 21
-654.9912984487535
 31
0.0
  0
LINE
  5
93E
  8
VISIBLE
 62
     5
 10
214.9881853188083
 20
-654.9912984483144
 30
0.0
 11
235.4231853188082
 21
-654.9912984483144
 31
0.0
  0
LINE
  5
93F
  8
VISIBLE
 62
     5
 10
235.4231853188082
 20
-654.9912984483144
 30
0.0
 11
235.4231853188082
 21
-654.2612984483144
 31
0.0
  0
LINE
  5
940
  8
VISIBLE
 62
     5
 10
235.4231853188082
 20
-654.2612984483144
 30
0.0
 11
225.4231853188082
 21
-654.2612984483144
 31
0.0
  0
LINE
  5
941
  8
VISIBLE
 62
     5
 10
225.4231853188082
 20
-654.2612984483144
 30
0.0
 11
225.4231853192473
 21
-647.428075143172
 31
0.0
  0
ARC
  5
942
  8
VISIBLE
 62
     5
 10
225.3347969711599
 20
-647.3396867959627
 30
0.0
 40
0.125000000000001
 50
315.0000002846007
 51
135.0
  0
LINE
  5
943
  8
VISIBLE
 62
     5
 10
225.2464086235116
 20
-647.2512984483144
 30
0.0
 11
215.2149620141049
 21
-647.2512984483144
 31
0.0
  0
ARC
  5
944
  8
VISIBLE
 62
     5
 10
215.1265736664565
 20
-647.3396867959627
 30
0.0
 40
0.1250000000000211
 50
45.0
 51
225.0000000000092
  0
LINE
  5
945
  8
VISIBLE
 62
     5
 10
215.0381853188082
 20
-647.4280751436111
 30
0.0
 11
215.0381853188082
 21
-647.8145217530177
 31
0.0
  0
ARC
  5
946
  8
VISIBLE
 62
     5
 10
215.1265736664566
 20
-647.9029101006661
 30
0.0
 40
0.1250000000000412
 50
135.0000000000092
 51
315.0
  0
LINE
  5
947
  8
VISIBLE
 62
     5
 10
215.2149620141049
 20
-647.9912984483144
 30
0.0
 11
224.6731853188082
 21
-647.9912984483144
 31
0.0
  0
LINE
  5
948
  8
VISIBLE
 62
     5
 10
224.6731853188082
 20
-647.9912984483144
 30
0.0
 11
224.6731853188082
 21
-654.2612984483144
 31
0.0
  0
LINE
  5
949
  8
VISIBLE
 62
     5
 10
224.6731853188082
 20
-654.2612984483144
 30
0.0
 11
214.9881853188083
 21
-654.2612984483144
 31
0.0
  0
LINE
  5
94A
  8
VISIBLE
 62
     5
 10
168.6147472900732
 20
-657.6262984483147
 30
0.0
 11
168.6147472900732
 21
-659.7512984483147
 31
0.0
  0
LINE
  5
94B
  8
VISIBLE
 62
     5
 10
168.6147472900732
 20
-659.7512984483147
 30
0.0
 11
168.0102739853698
 21
-659.7512984483147
 31
0.0
  0
ARC
  5
94C
  8
VISIBLE
 62
     5
 10
167.9218856377216
 20
-659.6629101006663
 30
0.0
 40
0.1250000000000613
 50
135.0000000000368
 51
314.9999999999447
  0
LINE
  5
94D
  8
VISIBLE
 62
     5
 10
167.8334972900732
 20
-659.5745217530181
 30
0.0
 11
167.8334972900732
 21
-657.8030751436113
 31
0.0
  0
ARC
  5
94E
  8
VISIBLE
 62
     5
 10
167.9218856377215
 20
-657.714686795963
 30
0.0
 40
0.125000000000001
 50
44.99999999995394
 51
225.0000000000092
  0
LINE
  5
94F
  8
VISIBLE
 62
     5
 10
168.0102739853698
 20
-657.6262984483147
 30
0.0
 11
168.6147472900732
 21
-657.6262984483147
 31
0.0
  0
LINE
  5
950
  8
VISIBLE
 62
     5
 10
168.6147472900732
 20
-644.6262984483146
 30
0.0
 11
168.6147472900732
 21
-646.7512984483146
 31
0.0
  0
LINE
  5
951
  8
VISIBLE
 62
     5
 10
168.6147472900732
 20
-646.7512984483146
 30
0.0
 11
168.0102739853698
 21
-646.7512984483146
 31
0.0
  0
ARC
  5
952
  8
VISIBLE
 62
     5
 10
167.9218856377215
 20
-646.6629101006663
 30
0.0
 40
0.1250000000000211
 50
135.0
 51
315.0
  0
LINE
  5
953
  8
VISIBLE
 62
     5
 10
167.8334972900732
 20
-646.574521753018
 30
0.0
 11
167.8334972900732
 21
-644.8030751436113
 31
0.0
  0
ARC
  5
954
  8
VISIBLE
 62
     5
 10
167.9218856377215
 20
-644.714686795963
 30
0.0
 40
0.125000000000001
 50
45.00000000000921
 51
225.0000000000092
  0
LINE
  5
955
  8
VISIBLE
 62
     5
 10
168.0102739853698
 20
-644.6262984483146
 30
0.0
 11
168.6147472900732
 21
-644.6262984483146
 31
0.0
  0
LINE
  5
956
  8
VISIBLE
 62
     5
 10
168.6147472900732
 20
-651.1262984483146
 30
0.0
 11
168.6147472900732
 21
-653.2512984483146
 31
0.0
  0
LINE
  5
957
  8
VISIBLE
 62
     5
 10
168.6147472900732
 20
-653.2512984483146
 30
0.0
 11
168.0102739853698
 21
-653.2512984483146
 31
0.0
  0
ARC
  5
958
  8
VISIBLE
 62
     5
 10
167.9218856377215
 20
-653.1629101006663
 30
0.0
 40
0.1250000000000211
 50
135.0000000000184
 51
315.0
  0
LINE
  5
959
  8
VISIBLE
 62
     5
 10
167.8334972900732
 20
-653.0745217530181
 30
0.0
 11
167.8334972900732
 21
-651.3030751436113
 31
0.0
  0
ARC
  5
95A
  8
VISIBLE
 62
     5
 10
167.9218856377215
 20
-651.214686795963
 30
0.0
 40
0.125000000000001
 50
45.00000000000921
 51
225.0000000000092
  0
LINE
  5
95B
  8
VISIBLE
 62
     5
 10
168.0102739853698
 20
-651.1262984483146
 30
0.0
 11
168.6147472900732
 21
-651.1262984483146
 31
0.0
  0
ARC
  5
95C
  8
VISIBLE
 62
     5
 10
231.2703780397031
 20
-777.307026968841
 30
0.0
 40
0.1250000000000412
 50
45.00000000006448
 51
224.9999999999355
  0
LINE
  5
95D
  8
VISIBLE
 62
     5
 10
231.1819896920547
 20
-777.3954153164892
 30
0.0
 11
231.1819896920547
 21
-779.166861925896
 31
0.0
  0
ARC
  5
95E
  8
VISIBLE
 62
     5
 10
231.2703780397031
 20
-779.2552502735443
 30
0.0
 40
0.1250000000000412
 50
135.0000000000092
 51
315.0
  0
LINE
  5
95F
  8
VISIBLE
 62
     5
 10
231.3587663873514
 20
-779.3436386211926
 30
0.0
 11
232.0257396920547
 21
-779.3436386211926
 31
0.0
  0
LINE
  5
960
  8
VISIBLE
 62
     5
 10
232.0257396920547
 20
-779.3436386211926
 30
0.0
 11
232.0257396920547
 21
-777.2186386211926
 31
0.0
  0
LINE
  5
961
  8
VISIBLE
 62
     5
 10
232.0257396920547
 20
-777.2186386211926
 30
0.0
 11
231.3587663873514
 21
-777.2186386211926
 31
0.0
  0
ARC
  5
962
  8
VISIBLE
 62
     5
 10
231.2703780397031
 20
-783.8070269688409
 30
0.0
 40
0.1249999999999005
 50
44.99999999998158
 51
224.9999999999632
  0
LINE
  5
963
  8
VISIBLE
 62
     5
 10
231.1819896920547
 20
-783.8954153164891
 30
0.0
 11
231.1819896920547
 21
-785.666861925896
 31
0.0
  0
ARC
  5
964
  8
VISIBLE
 62
     5
 10
231.2703780397031
 20
-785.7552502735443
 30
0.0
 40
0.1250000000000211
 50
135.0
 51
314.9999999999908
  0
LINE
  5
965
  8
VISIBLE
 62
     5
 10
231.3587663873514
 20
-785.8436386211927
 30
0.0
 11
232.0257396920547
 21
-785.8436386211927
 31
0.0
  0
LINE
  5
966
  8
VISIBLE
 62
     5
 10
232.0257396920547
 20
-785.8436386211927
 30
0.0
 11
232.0257396920547
 21
-783.7186386211927
 31
0.0
  0
LINE
  5
967
  8
VISIBLE
 62
     5
 10
232.0257396920547
 20
-783.7186386211927
 30
0.0
 11
231.3587663873514
 21
-783.7186386211927
 31
0.0
  0
ARC
  5
968
  8
VISIBLE
 62
     5
 10
231.2703780397031
 20
-790.3070269688409
 30
0.0
 40
0.1249999999999206
 50
44.99999999997237
 51
224.9999999999632
  0
LINE
  5
969
  8
VISIBLE
 62
     5
 10
231.1819896920547
 20
-790.3954153164891
 30
0.0
 11
231.1819896920547
 21
-792.166861925896
 31
0.0
  0
ARC
  5
96A
  8
VISIBLE
 62
     5
 10
231.2703780397031
 20
-792.2552502735443
 30
0.0
 40
0.1250000000000211
 50
135.0
 51
314.9999999999908
  0
LINE
  5
96B
  8
VISIBLE
 62
     5
 10
231.3587663873514
 20
-792.3436386211927
 30
0.0
 11
232.0257396920547
 21
-792.3436386211927
 31
0.0
  0
LINE
  5
96C
  8
VISIBLE
 62
     5
 10
232.0257396920547
 20
-792.3436386211927
 30
0.0
 11
232.0257396920547
 21
-790.2186386211927
 31
0.0
  0
LINE
  5
96D
  8
VISIBLE
 62
     5
 10
232.0257396920547
 20
-790.2186386211927
 30
0.0
 11
231.3587663873514
 21
-790.2186386211927
 31
0.0
  0
INSERT
  5
96E
  8
DIMENSIONS
  2
*X32
 10
0.0
 20
0.0
 30
0.0
  0
INSERT
  5
96F
  8
DIMENSIONS
  2
*X33
 10
0.0
 20
0.0
 30
0.0
  0
INSERT
  5
970
  8
DIMENSIONS
 62
     1
  2
*X34
 10
0.0
 20
0.0
 30
0.0
  0
INSERT
  5
971
  8
DIMENSIONS
 62
     1
  2
*X35
 10
0.0
 20
0.0
 30
0.0
  0
TEXT
  5
972
  8
DIMENSIONS
 62
     7
 10
243.0665908175698
 20
-791.5270151015498
 30
0.0
 40
2.5
  1
CÔTÉ B
  7
EXPLODED0
  0
INSERT
  5
973
  8
DIMENSIONS
 62
     1
  2
*X36
 10
0.0
 20
0.0
 30
0.0
  0
INSERT
  5
974
  8
DIMENSIONS
 62
     1
  2
*X37
 10
0.0
 20
0.0
 30
0.0
  0
INSERT
  5
975
  8
DIMENSIONS
  2
*X38
 10
0.0
 20
0.0
 30
0.0
  0
INSERT
  5
976
  8
DIMENSIONS
  2
*X39
 10
0.0
 20
0.0
 30
0.0
  0
ENDSEC
  0
EOF
